Loading...


Loading




Author : Poster | Date : 3-12-2015, 02:57 | Comments : 0 |
|

Applesauce (2015)
HDRip | AVI / XviD, 1923 Kbps | 720x400 | 1h 30mn | 1.35 GiB | English: AC3, 192 Kbps (2 ch)
WEB-DL 720p | MKV / AVC, 4032 Kbps | 1280x720 | 1h 30mn | 2.66 GiB | English: AAC, 149 Kbps (2 ch) | Subtitles: English
Genre: Comedy

Two married couples become increasingly agitated with each other as they find out things about each other's past, while one of them is reviving disturbing packages from an unknown source

Two married couples become increasingly agitated with each other as they find out things about each other's past, while one of them is reviving disturbing packages from an unknown source
imdb - 1 win & 1 nomination.
mediainfo HDRip:
General
Complete name : Applesauce.2015.HDRip.XviD.AC3-EVO.avi
Format : AVI
Format/Info : Audio Video Interleave
Format profile : OpenDML
Format settings : rec
File size : 1.35 GiB
Duration : 1h 30mn
Overall bit rate : 2 121 Kbps
Writing application : AVI-Mux GUI 1.17.8.3, Feb 16 201019:42:50
Video
ID : 0
Format : MPEG-4 Visual
Format profile : Advanced [email protected]
Format settings, BVOP : 2
Format settings, QPel : No
Format settings, GMC : No warppoints
Format settings, Matrix : Default (H.263)
Muxing mode : Packed bitstream
Codec ID : XVID
Codec ID/Hint : XviD
Duration : 1h 30mn
Bit rate : 1 923 Kbps
Width : 720 pixels
Height : 400 pixels
Display aspect ratio : 16:9
Frame rate : 23.976 fps
Color space : YUV
Chroma subsampling : 4:2:0
Bit depth : 8 bits
Scan type : Progressive
Compression mode : Lossy
Bits/(Pixel*Frame) : 0.279
Stream size : 1.22 GiB (91%)
Writing library : XviD 66
Audio
ID : 1
Format : AC-3
Format/Info : Audio Coding 3
Mode extension : CM (complete main)
Format settings, Endianness : Big
Codec ID : 2000
Duration : 1h 30mn
Bit rate mode : Constant
Bit rate : 192 Kbps
Channel(s) : 2 channels
Channel positions : Front: L R
Sampling rate : 48.0 KHz
Compression mode : Lossy
Stream size : 125 MiB (9%)
Alignment : Aligned on interleaves
Interleave, duration : 64 ms (1.53 video frames)
Interleave, preload duratio : 192 ms
Title : AC3

mediainfo WEB-DL 720p:
General
Unique ID : 170706061281581353009584410473319892003 (0x806CCAA0780524E197A08591D3640423)
Complete name : Applesauce.2015.720p.WEB-DL.AAC2.0.H.264-Coo7.mkv
Format : Matroska
Format version : Version 4 / Version 2
File size : 2.66 GiB
Duration : 1h 30mn
Overall bit rate : 4 184 Kbps
Encoded date : UTC 2015-12-01 23:20:18
Writing application : mkvmerge v7.8.0 ('River Man') 64bit built on Mar 27 2015 16:31:37
Writing library : libebml v1.3.1 + libmatroska v1.4.2
DURATION : 01:28:35.909000000
NUMBER_OF_FRAMES : 1886
NUMBER_OF_BYTES : 82970
_STATISTICS_WRITING_APP : mkvmerge v7.8.0 ('River Man') 64bit built on Mar 27 2015 16:31:37
_STATISTICS_WRITING_DATE_UT : 2015-12-01 23:20:18
_STATISTICS_TAGS : BPS DURATION NUMBER_OF_FRAMES NUMBER_OF_BYTES
Video
ID : 2
Format : AVC
Format/Info : Advanced Video Codec
Format profile : [email protected]
Format settings, CABAC : No
Format settings, ReFrames : 2 frames
Codec ID : V_MPEG4/ISO/AVC
Duration : 1h 30mn
Width : 1 280 pixels
Height : 720 pixels
Display aspect ratio : 16:9
Frame rate mode : Constant
Frame rate : 23.976 fps
Color space : YUV
Chroma subsampling : 4:2:0
Bit depth : 8 bits
Scan type : Progressive
Language : English
Default : Yes
Forced : No
Color range : Limited
Color primaries : BT.709
Transfer characteristics : BT.709
Matrix coefficients : BT.709
Audio
ID : 1
Format : AAC
Format/Info : Advanced Audio Codec
Format profile : LC
Codec ID : A_AAC
Duration : 1h 30mn
Channel(s) : 2 channels
Channel positions : Front: L R
Sampling rate : 48.0 KHz
Compression mode : Lossy
Language : English
Default : Yes
Forced : No
Text
ID : 3
Format : UTF-8
Codec ID : S_TEXT/UTF8
Codec ID/Info : UTF-8 Plain Text
Title : CC
Language : English
Default : Yes
Forced : No
Menu
00:00:00.000 : en:1
00:12:32.000 : en:2
00:18:38.000 : en:3
00:33:32.000 : en:4
00:44:04.000 : en:5
00:51:38.000 : en:6
01:01:38.000 : en:7
01:10:33.000 : en:8
01:17:02.000 : en:9
01:28:39.000 : en:10

Download Now :

 
[related-news] Related News:

{related-news} [/related-news]

ADVERTISING » Full And Free Download
Direct Download Free Applesauce .zip
« ADVERTISING

Applesauce Copyright

dlbin periodically updates infomation and download links of Applesauce .You should confirm all information before relying on it. eBook piracy is theft, Applesauce download torrent,direct link,prefiles.com,Applesauce dropbox.com,Applesauce mediafire.com,Applesauce rapidgator.net,Applesauce filefactory.com,Applesauce uploaded.net,oboom.com at here Please contact hostfile


Write a Comment For"Applesauce "




Recent searches:
File searchcloudcache.php not found.

Remember Me?
BOOKSMARK US

rss feed

Get newest via RSS reader

feed burner

Mail Daily Letter

Enter your email address:

PUBLICATION ARCHIVE
«    March 2017    »
MonTueWedThuFriSatSun
 12345
6789101112
13141516171819
20212223242526
2728293031 

Main/Menu

WE RECOMMEND TO VISIT:

^ Top