Loading...


Loading




Author : Poster | Date : 3-12-2015, 02:58 | Comments : 0 |
|

National Geographic - Jerusalem (2013)
BluRay | 1280x720 | .MP4/AVC @ 3138 Kbps | 44mn 15s | Audio: English AAC 160 kbps, 2 channels | Subs: English | 1.02 GiB
Genre: Documentary

Jerusalem immerses audiences into one of the world's most beloved cities. Discover why this tiny piece of land is sacred to three major religions through the stories of Jewish, Christian and Muslim families who call Jerusalem home. Join renowned archaeologist, Dr. Jodi Magness, as she travels underground to solve some of this city’s greatest mysteries. Find out why, after thousands of years, Jerusalem and the Holy Land continue to stir the imagination of billions of people. Unprecedented access to the city's holiest sites, as well as rare and breathtaking aerial footage of the Old City and the Holy Land, combine to make Jerusalem a unique and stunning cinematic experience.


Jerusalem immerses audiences into one of the world's most beloved cities. Discover why this tiny piece of land is sacred to three major religions through the stories of Jewish, Christian and Muslim families who call Jerusalem home. Join renowned archaeologist, Dr. Jodi Magness, as she travels underground to solve some of this city’s greatest mysteries. Find out why, after thousands of years, Jerusalem and the Holy Land continue to stir the imagination of billions of people. Unprecedented access to the city's holiest sites, as well as rare and breathtaking aerial footage of the Old City and the Holy Land, combine to make Jerusalem a unique and stunning cinematic experience.

MediaInfo

General
Complete name : National.Geographic.Jerusalem.2013.720p.BluRay.mp4
Format : MPEG-4
Format profile : Base Media
Codec ID : isom
File size : 1.02 GiB
Duration : 44mn 15s
Overall bit rate mode : Variable
Overall bit rate : 3 301 Kbps
Video
ID : 1
Format : AVC
Format/Info : Advanced Video Codec
Format profile : [email protected]
Format settings, CABAC : No
Format settings, ReFrames : 1 frame
Format settings, GOP : M=1, N=12
Codec ID : avc1
Codec ID/Info : Advanced Video Coding
Duration : 44mn 15s
Source duration : 1mn 18s
Bit rate : 3 138 Kbps
Maximum bit rate : 18.2 Mbps
Width : 1 280 pixels
Height : 720 pixels
Display aspect ratio : 16:9
Frame rate mode : Constant
Frame rate : 23.976 fps
Color space : YUV
Chroma subsampling : 4:2:0
Bit depth : 8 bits
Scan type : Progressive
Bits/(Pixel*Frame) : 0.142
Stream size : 994 MiB (95%)
Source stream size : 994 MiB (95%)
Encoded date : UTC 2015-12-02 12:12:38
Tagged date : UTC 2015-12-02 14:06:26
mdhd_Duration : 2655693
Audio
ID : 2
Format : AAC
Format/Info : Advanced Audio Codec
Format profile : LC
Codec ID : 40
Duration : 44mn 15s
Bit rate mode : Variable
Bit rate : 160 Kbps
Maximum bit rate : 274 Kbps
Channel(s) : 2 channels
Channel positions : Front: L R
Sampling rate : 48.0 KHz
Compression mode : Lossy
Stream size : 50.6 MiB (5%)
Encoded date : UTC 2015-12-02 14:06:22
Tagged date : UTC 2015-12-02 14:06:26
Text
ID : 3
Format : Timed Text
Codec ID : tx3g
Duration : 41mn 45s
Bit rate mode : Variable
Bit rate : 47 bps
Stream size : 14.4 KiB (0%)
Encoded date : UTC 2015-12-02 14:06:26
Tagged date : UTC 2015-12-02 14:06:26

Download Now :

 
[related-news] Related News:

{related-news} [/related-news]

ADVERTISING » Full And Free Download
Direct Download Free National Geographic - Jerusalem .zip
« ADVERTISING

National Geographic - Jerusalem Copyright

dlbin periodically updates infomation and download links of National Geographic - Jerusalem .You should confirm all information before relying on it. eBook piracy is theft, National Geographic - Jerusalem download torrent,direct link,prefiles.com,National Geographic - Jerusalem dropbox.com,National Geographic - Jerusalem mediafire.com,National Geographic - Jerusalem rapidgator.net,National Geographic - Jerusalem filefactory.com,National Geographic - Jerusalem uploaded.net,oboom.com at here Please contact hostfile


Write a Comment For"National Geographic - Jerusalem "




Recent searches:
File searchcloudcache.php not found.

Remember Me?
BOOKSMARK US

rss feed

Get newest via RSS reader

feed burner

Mail Daily Letter

Enter your email address:

PUBLICATION ARCHIVE
«    February 2017    »
MonTueWedThuFriSatSun
 12345
6789101112
13141516171819
20212223242526
2728 

Main/Menu

WE RECOMMEND TO VISIT:

^ Top