Loading...


Loading




Author : Poster | Date : 3-12-2015, 08:19 | Comments : 0 |
|

Alex Beyrodt's Voodoo Circle - Whisky Fingers (2015) [Limited Ed.] Digipak
EAC Rip | FLAC: Image+Cue+Log | 419 Mb | Scans | 45 Mb | Time: 55:11
Genre: Hard Rock, Heavy/Power Metal | Label: AFM Records | Cat.№: AFM 531-9

‘Whisky Fingers‘ is the highly-anticipated fourth studio album by classic hard rockers VOODOO CIRCLE, following 2013’s ‚More Than One Way Home‘ which became a chart success in several European countries. Very soon, ‘Whisky Fingers’ will be named as the group’s highlight release, as for sure it marks VOODOO CIRCLE’s most versatile and consequent release to date. Right away with the opening track ‚Trapped In Paradise‘ (which will also be the first single) the duel of guitars and Hammond organ makes classic rock fans cry out in joy. The successive 10 tracks then cover the whole spectrum; from the eventful ‚Watch And Wait (I Got My Eye On You)‘ to energetic hard rock as in ‚Medicine Man‘ and ‚Straight Shooter‘, the stunning ballad ‚The Day The Walls Came Down‘, Rainbow-like anthems (‚Heart Of Stone‘) and yearningly-bluesy tracks (‚The Rhythm Of My Heart‘) it’s all here - and all executed in a perfect way.


‘Whisky Fingers‘ is the highly-anticipated fourth studio album by classic hard rockers VOODOO CIRCLE, following 2013’s ‚More Than One Way Home‘ which became a chart success in several European countries. Very soon, ‘Whisky Fingers’ will be named as the group’s highlight release, as for sure it marks VOODOO CIRCLE’s most versatile and consequent release to date. Right away with the opening track ‚Trapped In Paradise‘ (which will also be the first single) the duel of guitars and Hammond organ makes classic rock fans cry out in joy. The successive 10 tracks then cover the whole spectrum; from the eventful ‚Watch And Wait (I Got My Eye On You)‘ to energetic hard rock as in ‚Medicine Man‘ and ‚Straight Shooter‘, the stunning ballad ‚The Day The Walls Came Down‘, Rainbow-like anthems (‚Heart Of Stone‘) and yearningly-bluesy tracks (‚The Rhythm Of My Heart‘) it’s all here - and all executed in a perfect way.

Track Listing
01. Trapped In Paradise (04:14)
02. Heartbreaking Woman (04:20)
03. Watch And Wait (I Got My On You) (06:21)
04. Medicine Man (05:17)
05. The Day The Walls Came Down (03:44)
06. Heart Of Stone (03:53)
07. Straight Shooter (04:29)
08. The Rhythm Of My Heart (06:58)
09. Devil Takes Me Down (03:16)
10. 5 O'Clock (03:39)
11. Been Said And Done (04:34)
12. Coming Home To You (Bonus Track) (04:21)
Produced by Alex Beyrodt
The Band
• Alex Beyrodt - Electric & Acoustic Guitars
• David Readman - Lead & Backing Vocals
• Mat Sinner - Bass
• Alessandro Del Vecchio - Hammond Organ, Keyboards, Lead & Backing Vocals
• Francesco Jovino - Drums
EAC Log
Exact Audio Copy V1.1 from 23. June 2015
EAC extraction logfile from 1. December 2015, 17:27
Voodoo Circle / Whisky Fingers
Used drive : ATAPI iHAS122 W Adapter: 2 ID: 0
Read mode : Secure
Utilize accurate stream : Yes
Defeat audio cache : Yes
Make use of C2 pointers : No
Read offset correction : 48
Overread into Lead-In and Lead-Out : No
Fill up missing offset samples with silence : Yes
Delete leading and trailing silent blocks : No
Null samples used in CRC calculations : Yes
Used interface : Installed external ASPI interface
Used output format : User Defined Encoder
Selected bitrate : 1024 kBit/s
Quality : High
Add ID3 tag : No
Command line compressor : C:Program FilesFLACflac.exe
Additional command line options : -V -8 -T "Date=%year%" -T "Genre=%genre%" -T"COMMENT=Ripped by Ilijan" -8 -V %source%
TOC of the extracted CD
Track | Start | Length | Start sector | End sector
---------------------------------------------------------
1 | 0:00.00 | 4:14.50 | 0 | 19099
2 | 4:14.50 | 4:20.46 | 19100 | 38645
3 | 8:35.21 | 6:20.74 | 38646 | 67219
4 | 14:56.20 | 5:17.62 | 67220 | 91056
5 | 20:14.07 | 3:44.15 | 91057 | 107871
6 | 23:58.22 | 3:53.65 | 107872 | 125411
7 | 27:52.12 | 4:29.40 | 125412 | 145626
8 | 32:21.52 | 6:58.10 | 145627 | 176986
9 | 39:19.62 | 3:15.73 | 176987 | 191684
10 | 42:35.60 | 3:39.56 | 191685 | 208165
11 | 46:15.41 | 4:33.74 | 208166 | 228714
12 | 50:49.40 | 4:21.45 | 228715 | 248334
13 | 57:43.10 | 12:02.57 | 259735 | 313941
Range status and errors
Selected range
Filename D:ilкоVoodoo Circle - Whisky Fingers.wav
Peak level 98.8 %
Extraction speed 4.3 X
Range quality 100.0 %
Test CRC EDFCA643
Copy CRC EDFCA643
Copy OK
No errors occurred
AccurateRip summary
Track 1 not present in database
Track 2 not present in database
Track 3 not present in database
Track 4 not present in database
Track 5 not present in database
Track 6 not present in database
Track 7 not present in database
Track 8 not present in database
Track 9 not present in database
Track 10 not present in database
Track 11 not present in database
Track 12 not present in database
None of the tracks are present in the AccurateRip database
End of status report
---- CUETools DB Plugin V2.1.6
[CTDB TOCID: wfi11IfgUmoTFbfQjERK94i7sTs-] found
Submit result: wfi11IfgUmoTFbfQjERK94i7sTs- has been confirmed
Track | CTDB Status
1 | (1/1) Accurately ripped
2 | (1/1) Accurately ripped
3 | (1/1) Accurately ripped
4 | (1/1) Accurately ripped
5 | (1/1) Accurately ripped
6 | (1/1) Accurately ripped
7 | (1/1) Accurately ripped
8 | (1/1) Accurately ripped
9 | (1/1) Accurately ripped
10 | (1/1) Accurately ripped
11 | (1/1) Accurately ripped
12 | (1/1) Accurately ripped
==== Log checksum 53A588B6573F2829FC9C38CACBCCCF9C93D7389377E07C9C62DB16113AE50C2C ====

Many thanks to the original uploader: Ilijan

Download Now :

 
[related-news] Related News:

{related-news} [/related-news]

ADVERTISING » Full And Free Download
Direct Download Free Alex Beyrodt's Voodoo Circle - Whisky Fingers Digipak.zip
« ADVERTISING

Alex Beyrodt's Voodoo Circle - Whisky Fingers Digipak Copyright

dlbin periodically updates infomation and download links of Alex Beyrodt's Voodoo Circle - Whisky Fingers Digipak.You should confirm all information before relying on it. eBook piracy is theft, Alex Beyrodt's Voodoo Circle - Whisky Fingers Digipak download torrent,direct link,prefiles.com,Alex Beyrodt's Voodoo Circle - Whisky Fingers Digipak dropbox.com,Alex Beyrodt's Voodoo Circle - Whisky Fingers Digipak mediafire.com,Alex Beyrodt's Voodoo Circle - Whisky Fingers Digipak rapidgator.net,Alex Beyrodt's Voodoo Circle - Whisky Fingers Digipak filefactory.com,Alex Beyrodt's Voodoo Circle - Whisky Fingers Digipak uploaded.net,oboom.com at here Please contact hostfile


Write a Comment For"Alex Beyrodt's Voodoo Circle - Whisky Fingers Digipak"




Recent searches:
File searchcloudcache.php not found.

Remember Me?
BOOKSMARK US

rss feed

Get newest via RSS reader

feed burner

Mail Daily Letter

Enter your email address:

PUBLICATION ARCHIVE
«    January 2017    »
MonTueWedThuFriSatSun
 1
2345678
9101112131415
16171819202122
23242526272829
3031 

Main/Menu

WE RECOMMEND TO VISIT:

^ Top