Loading...


Loading




Author : Poster | Date : 3-12-2015, 08:19 | Comments : 0 |
|

Electric Light Orchestra - Zoom (2001/2013)
EAC Rip | FLAC (Img) + Cue + Log ~ 394 Mb | MP3 CBR320 ~ 149 Mb
Scans Included (JPG, 300 dpi) | RAR 5% Recovery
Rock | Avalon #MICP-30042

Zoom is the thirteenth studio album by British symphonic rock band Electric Light Orchestra (ELO), released on 12 June 2001 on Epic Records. It was the first official ELO album since 1986's Balance of Power. Japanese reissue by Avalon includes 3 bonus tracks.


Zoom is the thirteenth studio album by British symphonic rock band Electric Light Orchestra (ELO), released on 12 June 2001 on Epic Records. It was the first official ELO album since 1986's Balance of Power. Japanese reissue by Avalon includes 3 bonus tracks.

Track List:
01. Alright [03:13]
02. Moment In Paradise [03:36]
03. State Of Mind [03:04]
04. Just For Love [03:39]
05. Stranger On A Quiet Street [03:40]
06. In My Own Time [03:04]
07. Easy Money [02:52]
08. It Really Doesn't Matter [03:20]
09. Ordinary Dream [03:23]
10. A Long Time Gone [03:16]
11. Melting In The Sun [03:11]
12. All She Wanted [03:15]
13. Lonesome Lullaby [04:05]
14. One Day [03:04]
15. Do Ya (Live From CBS Television City) [03:49]
16. Lucky Motel [02:11]
EAC Log
Exact Audio Copy V0.99 prebeta 5 from 4. May 2009
Отчёт EAC об извлечении, выполненном 14. декабря 2013, 23:12
Electric Light Orchestra / Zoom (Japan SHM-CD, 2013)
Дисковод: Optiarc DVD RW AD-7191S Adapter: 3 ID: 1
Режим чтения : Достоверность
Использование точного потока : Да
Отключение кэша аудио : Да
Использование указателей C2 : Нет
Коррекция смещения при чтении : 6
Способность читать области Lead-in и Lead-out : Нет
Заполнение пропущенных сэмплов тишиной : Да
Удаление блоков с тишиной в начале и конце : Нет
При вычислениях CRC использовались нулевые сэмплы : Да
Интерфейс : Встроенный Win32-интерфейс для Win NT/2000
Выходной формат : Пользовательский кодировщик
Выбранный битрейт : 320 kBit/s
Качество : Высокий
Добавление ID3-тэга : Нет
Утилита сжатия : C:Program Files (x86)FLACflac.exe
Дополнительные параметры : -8 -V -T "ARTIST=%a" -T "TITLE=%t" -T "ALBUM=%g" -T "DATE=%y" -T "TRACKNUMBER=%n" -T "GENRE=%m" -T "COMMENT=%e" %s -o %d
TOC извлечённого CD
Трек | Старт | Длительность | Начальный сектор | Конечный сектор
---------------------------------------------------------------------
1 | 0:00.00 | 3:12.04 | 0 | 14403
2 | 3:12.04 | 3:35.16 | 14404 | 30544
3 | 6:47.20 | 3:03.67 | 30545 | 44336
4 | 9:51.12 | 3:38.41 | 44337 | 60727
5 | 13:29.53 | 3:39.36 | 60728 | 77188
6 | 17:09.14 | 3:03.65 | 77189 | 90978
7 | 20:13.04 | 2:51.24 | 90979 | 103827
8 | 23:04.28 | 3:19.66 | 103828 | 118818
9 | 26:24.19 | 3:22.51 | 118819 | 134019
10 | 29:46.70 | 3:15.15 | 134020 | 148659
11 | 33:02.10 | 3:10.05 | 148660 | 162914
12 | 36:12.15 | 3:14.40 | 162915 | 177504
13 | 39:26.55 | 4:04.57 | 177505 | 195861
14 | 43:31.37 | 3:03.56 | 195862 | 209642
15 | 46:35.18 | 3:48.01 | 209643 | 226743
16 | 50:23.19 | 2:10.38 | 226744 | 236531
Характеристики диапазона извлечения и сообщения об ошибках
Выбранный диапазон
Имя файла K:MUSICELOElectric Light Orchestra - Zoom (Japan SHM-CD, 2013).wav
Пиковый уровень 100.0 %
Качество диапазона 100.0 %
CRC теста 4A8A10F1
CRC копии 4A8A10F1
Копирование... OK
Ошибок не произошло
AccurateRip: сводка
Трек 1 : извлечено точно (доверие 1) [AD18082C] (AR v2)
Трек 2 : извлечено точно (доверие 1) [669C5841] (AR v2)
Трек 3 : извлечено точно (доверие 1) [2FFF4AD3] (AR v2)
Трек 4 : извлечено точно (доверие 1) [7028D697] (AR v2)
Трек 5 : извлечено точно (доверие 1) [DB562E7F] (AR v2)
Трек 6 : извлечено точно (доверие 1) [B35FCF25] (AR v2)
Трек 7 : извлечено точно (доверие 1) [5DD1E926] (AR v2)
Трек 8 : извлечено точно (доверие 1) [830B1105] (AR v2)
Трек 9 : извлечено точно (доверие 1) [96A55B5D] (AR v2)
Трек 10 : извлечено точно (доверие 1) [B51AF9C2] (AR v2)
Трек 11 : извлечено точно (доверие 1) [0DDFA611] (AR v2)
Трек 12 : извлечено точно (доверие 1) [7EB28279] (AR v2)
Трек 13 : извлечено точно (доверие 1) [54B0AC35] (AR v2)
Трек 14 : извлечено точно (доверие 1) [008D0C62] (AR v2)
Трек 15 : извлечено точно (доверие 1) [56F8DC9B] (AR v2)
Трек 16 : извлечено точно (доверие 1) [A2C092C0] (AR v2)
Все треки извлечены точно
Конец отчёта

DR Log
foobar2000 1.2.6 / Dynamic Range Meter 1.1.1
log date: 2015-12-03 01:58:23
--------------------------------------------------------------------------------
Analyzed: Electric Light Orchestra / Zoom (Japan SHM-CD, 2013)
--------------------------------------------------------------------------------
DR Peak RMS Duration Track
--------------------------------------------------------------------------------
DR6 -0.11 dB -6.99 dB 3:12 01-Alright
DR7 -0.28 dB -8.33 dB 3:35 02-Moment In Paradise
DR6 -0.22 dB -7.23 dB 3:04 03-State Of Mind
DR6 -0.26 dB -8.06 dB 3:39 04-Just For Love
DR6 -0.21 dB -8.47 dB 3:39 05-Stranger On A Quiet Street
DR6 -0.20 dB -7.78 dB 3:04 06-In My Own Time
DR6 -0.14 dB -6.87 dB 2:51 07-Easy Money
DR5 -0.34 dB -7.49 dB 3:20 08-It Really Doesn't Matter
DR7 -0.25 dB -8.83 dB 3:23 09-Ordinary Dream
DR7 -0.25 dB -8.48 dB 3:15 10-A Long Time Gone
DR7 -0.30 dB -8.03 dB 3:10 11-Melting In The Sun
DR6 -0.25 dB -7.45 dB 3:15 12-All She Wanted
DR6 -0.22 dB -7.72 dB 4:05 13-Lonesome Lullaby
DR6 0.00 dB -7.26 dB 3:04 14-One Day
DR6 0.00 dB -6.89 dB 3:48 15-Do Ya (Live From CBS Television City)
DR9 -0.06 dB -10.64 dB 2:11 16-Lucky Motel
--------------------------------------------------------------------------------
Number of tracks: 16
Official DR value: DR6
Samplerate: 44100 Hz
Channels: 2
Bits per sample: 16
Bitrate: 939 kbps
Codec: FLAC
================================================================================

CUETools Log
[CUETools log; Date: 03.12.2015 1:58:36; Version: 2.1.5]
[CTDB TOCID: oSMi0UfhGbnHZbsKD47hNEDzn7Q-] found.
Track | CTDB Status
1 | (12/12) Accurately ripped
2 | (12/12) Accurately ripped
3 | (12/12) Accurately ripped
4 | (12/12) Accurately ripped
5 | (12/12) Accurately ripped
6 | (12/12) Accurately ripped
7 | (12/12) Accurately ripped
8 | (12/12) Accurately ripped
9 | (12/12) Accurately ripped
10 | (12/12) Accurately ripped
11 | (12/12) Accurately ripped
12 | (12/12) Accurately ripped
13 | (12/12) Accurately ripped
14 | (12/12) Accurately ripped
15 | (12/12) Accurately ripped
16 | (11/12) Accurately ripped
[AccurateRip ID: 001f0446-0173ef28-ea0c5110] found.
Track [ CRC | V2 ] Status
01 [3a7f0ea7|ad18082c] (0+6/6) Accurately ripped
02 [dc6e5aad|14ef22e5] (0+0/6) No match
03 [d3aadea6|d3ce19d6] (0+0/6) No match
04 [68d6cdf0|fb3ec04c] (0+0/6) No match
05 [642a10ca|37426f35] (0+0/6) No match
06 [a4c685f2|69d07489] (0+0/6) No match
07 [059402cc|5dd1e926] (0+6/6) Accurately ripped
08 [e99602b2|52e1ef46] (0+0/6) No match
09 [883ab83c|2ee509c2] (0+0/6) No match
10 [b42581ba|b51af9c2] (0+6/6) Accurately ripped
11 [85475cd8|64ebe2ae] (0+0/6) No match
12 [4cea66e8|43b0e161] (0+0/6) No match
13 [d089220a|5419d9c5] (0+0/6) No match
14 [fdc67cb6|607fe913] (0+0/6) No match
15 [4738120f|9f4fece0] (0+0/6) No match
16 [7f418324|422d02fe] (0+0/5) No match
Offsetted by -3:
01 [004574f1] (0/6) No match
02 [e68a5ba5] (0/6) No match
03 [be5cfb93] (0/6) No match
04 [38999232] (0/6) No match
05 [770ed7c5] (0/6) No match
06 [c75ea66c] (0/6) No match
07 [b919f13a] (0/6) No match
08 [208e1065] (0/6) No match
09 [ebcd6d9a] (0/6) No match
10 [d7f81b90] (0/6) No match
11 [071b7116] (0/6) No match
12 [112518a9] (0/6) No match
13 [50760f39] (0/6) No match
14 [9d1e41af] (0/6) No match (V2 was not tested)
15 [1f56c51f] (0/6) No match
16 [df51eb74] (0/5) No match (V2 was not tested)
Offsetted by -2:
01 [13adfd83] (0/6) No match
02 [388105fd] (0/6) No match
03 [1acc4744] (0/6) No match
04 [f358a61c] (0/6) No match
05 [1b6d401c] (0/6) No match
06 [112bf0ee] (0/6) No match
07 [7d42a1c0] (0/6) No match
08 [b8e60bd4] (0/6) No match
09 [1ff1dbd0] (0/6) No match
10 [cc073d9e] (0/6) No match
11 [dbd4bfac] (0/6) No match
12 [cfbc32be] (0/6) No match
13 [d07c6ad4] (0/6) No match (V2 was not tested)
14 [bd56555c] (0/6) No match
15 [d74c896f] (0/6) No match
16 [69f71e04] (0/5) No match
Offsetted by 1:
01 [4de79739] (0/6) No match
02 [2e650505] (0/6) No match (V2 was not tested)
03 [301a2a57] (0/6) No match (V2 was not tested)
04 [2395e1da] (0/6) No match
05 [08887921] (0/6) No match (V2 was not tested)
06 [ee93d074] (0/6) No match (V2 was not tested)
07 [c9bcb352] (0/6) No match
08 [81edfe21] (0/6) No match
09 [bc5f2672] (0/6) No match
10 [a834a3c8] (0/6) No match
11 [5a00ab6e] (0/6) No match
12 [0b8180fd] (0/6) No match
13 [508f7da5] (0/6) No match
14 [1dfe9063] (0/6) No match
15 [ff2dd65f] (0/6) No match (V2 was not tested)
16 [09e6b5b4] (0/5) No match
Offsetted by 2:
01 [61501fcb] (0/6) No match
02 [805baf5d] (0/6) No match
03 [8c897608] (0/6) No match
04 [de54f5c4] (0/6) No match (V2 was not tested)
05 [ace6e178] (0/6) No match
06 [38611af6] (0/6) No match
07 [8de563d8] (0/6) No match
08 [1a45f990] (0/6) No match (V2 was not tested)
09 [f08394a8] (0/6) No match (V2 was not tested)
10 [9c43c5d6] (0/6) No match
11 [2eb9fa04] (0/6) No match (V2 was not tested)
12 [ca189b12] (0/6) No match
13 [d095d940] (0/6) No match
14 [3e36a410] (0/6) No match
15 [b7239aaf] (0/6) No match
16 [948be844] (0/5) No match
Offsetted by 3:
01 [74b8a85d] (0/6) No match
02 [d25259b5] (0/6) No match
03 [e8f8c1b9] (0/6) No match
04 [991409ae] (0/6) No match
05 [514549cf] (0/6) No match
06 [822e6578] (0/6) No match
07 [520e145e] (0/6) No match
08 [b29df4ff] (0/6) No match
09 [24a802de] (0/6) No match
10 [9052e7e4] (0/6) No match
11 [0373489a] (0/6) No match
12 [88afb527] (0/6) No match (V2 was not tested)
13 [509c34db] (0/6) No match
14 [5e6eb7bd] (0/6) No match
15 [6f195eff] (0/6) No match
16 [1f311ad4] (0/5) No match
Track Peak [ CRC32 ] [W/O NULL] [ LOG ]
-- 100,0 [4A8A10F1] [03F8E74F] CRC32
01 98,7 [6DA14909] [90A1C8C5]
02 96,8 [1D69FB58] [0EC24F14]
03 97,4 [34576D00] [2E9E424E]
04 97,0 [2FFAFD41] [8C5D8E65]
05 97,5 [A90DB773] [81428E50]
06 97,7 [EB1A5472] [A5E01F96]
07 98,3 [66A1BBD3] [2D50F952]
08 96,1 [E599C711] [CB313FBF]
09 97,1 [E225870F] [629C2A03]
10 97,1 [3344A27D] [FF18030E]
11 96,6 [A344616D] [FD5DB52B]
12 97,1 [67301D74] [CF9E0309]
13 97,5 [33756216] [50F88553]
14 100,0 [F4C00B8A] [A6440645]
15 100,0 [E6FC5177] [A1A3B5FA]
16 99,3 [E667C496] [DD087832]

See also:
Jeff Lynne's ELO - Alone In The Universe (2015) [Deluxe Edition] New Rip
Electric Light Orchestra - Out Of The Blue: Live At Wembley (2015) Blu-ray

Download Now :

 
[related-news] Related News:

{related-news} [/related-news]

ADVERTISING » Full And Free Download
Direct Download Free Electric Light Orchestra - Zoom .zip
« ADVERTISING

Electric Light Orchestra - Zoom Copyright

dlbin periodically updates infomation and download links of Electric Light Orchestra - Zoom .You should confirm all information before relying on it. eBook piracy is theft, Electric Light Orchestra - Zoom download torrent,direct link,prefiles.com,Electric Light Orchestra - Zoom dropbox.com,Electric Light Orchestra - Zoom mediafire.com,Electric Light Orchestra - Zoom rapidgator.net,Electric Light Orchestra - Zoom filefactory.com,Electric Light Orchestra - Zoom uploaded.net,oboom.com at here Please contact hostfile


Write a Comment For"Electric Light Orchestra - Zoom "




Recent searches:
File searchcloudcache.php not found.

Remember Me?
BOOKSMARK US

rss feed

Get newest via RSS reader

feed burner

Mail Daily Letter

Enter your email address:

PUBLICATION ARCHIVE
«    January 2017    »
MonTueWedThuFriSatSun
 1
2345678
9101112131415
16171819202122
23242526272829
3031 

Main/Menu

WE RECOMMEND TO VISIT:

^ Top