Loading...


Loading




Author : Poster | Date : 3-12-2015, 08:20 | Comments : 0 |
|

Chaise Lounge - Insomnia (2012)
EAC Rip | FLAC (Img) + Cue + Log ~ 357 Mb | MP3 CBR320 ~ 142 Mb
Scans Included (JPG, 600 dpi) | RAR 5% Recovery
Vocal Jazz, Swing, Lounge | Modern Songbook Records #MSR-003

With a sound that captures all the elegance, exuberance and flamboyance of the swinging ‘60s, Chaise Lounge delivers music that is high on style and sophistication. This Washington DC based ensemble of six accomplished musicians performs a groovy hybrid of pop-influenced jazz and swing that seems to both embody another era and belong to the present moment. Members playfully describe the group’s style as “ music that sounds like it was recorded at Capitol Recording Studios in 1962”, “early stereo” or “ perhaps lounge with a capital ‘L”...


With a sound that captures all the elegance, exuberance and flamboyance of the swinging ‘60s, Chaise Lounge delivers music that is high on style and sophistication. This Washington DC based ensemble of six accomplished musicians performs a groovy hybrid of pop-influenced jazz and swing that seems to both embody another era and belong to the present moment. Members playfully describe the group’s style as “ music that sounds like it was recorded at Capitol Recording Studios in 1962”, “early stereo” or “ perhaps lounge with a capital ‘L”.
Composed of some of the top jazz musicians in the Washington DC area, the group met in 1998 at a recording session hosted by film composer Charlie Barnett. Their musical chemistry was instantaneous. Together they achieve an almost orchestral sound by combining bass, drums, trombone, electric guitar and sax while vocalist Marilyn Older gives voice to the band’s urbane, story-like lyrics, Her whispery voice sparkles against the band’s red-hot flights and seamless harmonic twists. The sextet’s brilliantly rearranged pop tunes and original compositions have a theatrical, near-cinematic quality. Their covers run the gamut from iconic standards like “That Old Black Magic” and “Girl Talk” to the Talking Heads’ “Burning Down The House”. Their lush and vibrant originals are teasingly playful, charming audiences with intelligently written lyrics that are full of sensitivity and humor. Chaise Lounge plays a glamorous soundtrack to a dazzlingly re-imagined ‘60s that we wish existed.
~ cdbaby.com

Track List:
01. Insomnia [04:31]
02. Surprisingly [03:00]
03. Houdini [03:39]
04. Bali H'ai [03:47]
05. 43 Good Reasons [03:36]
06. The Devil on My Cellphone [04:43]
07. The Whole Wide World [02:59]
08. So Hush [03:11]
09. Ode To Billy Jo [05:37]
10. A Man Who Can Cook [02:48]
11. Slow Burn [04:30]
12. If I Only Had A Brain [03:36]
13. I'm Going To Ruin Your Day [03:42]
EAC Log
Exact Audio Copy V1.0 beta 3 from 29. August 2011
Отчёт EAC об извлечении, выполненном 1. ноября 2013, 14:49
Chaise Lounge / Insomnia
Дисковод: PLEXTOR DVDR PX-880SA Adapter: 1 ID: 0
Режим чтения : Достоверность
Использование точного потока : Да
Отключение кэша аудио : Да
Использование указателей C2 : Нет
Коррекция смещения при чтении : 6
Способность читать области Lead-in и Lead-out : Нет
Заполнение пропущенных сэмплов тишиной : Да
Удаление блоков с тишиной в начале и конце : Нет
При вычислениях CRC использовались нулевые сэмплы : Да
Интерфейс : Установленный внешний ASPI-интерфейс
Выходной формат : Пользовательский кодировщик
Выбранный битрейт : 1024 kBit/s
Качество : Высокий
Добавление ID3-тега : Нет
Утилита сжатия : C:Program FilesExact Audio CopyFLACFLAC.EXE
Дополнительные параметры : -10 -V -T "ARTIST=%artist%" -T "TITLE=%title%" -T "ALBUM=%albumtitle%" -T "DATE=%year%" -T "TRACKNUMBER=%tracknr%" -T "GENRE=%genre%" -T "COMMENT=%comment%" -T "BAND=%albuminterpret%" -T "ALBUMARTIST=%albuminterpret%" -T "COMPOSER=%composer%" %haslyrics%--tag-from-file=LYRICS="%lyricsfile%"%haslyrics% -T "DISCNUMBER=%cdnumber%" -T "TOTALDISCS=%totalcds%" -T "TOTALTRACKS=%numtracks%" %hascover%--picture="%coverfile%"%hascover% %source% -o %dest%
TOC извлечённого CD
Трек | Старт | Длительность | Начальный сектор | Конечный сектор
---------------------------------------------------------------------
1 | 0:00.00 | 4:30.12 | 0 | 20261
2 | 4:30.12 | 2:59.48 | 20262 | 33734
3 | 7:29.60 | 3:38.36 | 33735 | 50120
4 | 11:08.21 | 3:46.33 | 50121 | 67103
5 | 14:54.54 | 3:35.49 | 67104 | 83277
6 | 18:30.28 | 4:42.31 | 83278 | 104458
7 | 23:12.59 | 2:58.43 | 104459 | 117851
8 | 26:11.27 | 3:10.40 | 117852 | 132141
9 | 29:21.67 | 5:36.39 | 132142 | 157380
10 | 34:58.31 | 2:47.50 | 157381 | 169955
11 | 37:46.06 | 4:29.28 | 169956 | 190158
12 | 42:15.34 | 3:35.45 | 190159 | 206328
13 | 45:51.04 | 3:41.14 | 206329 | 222917
Характеристики диапазона извлечения и сообщения об ошибках
Выбранный диапазон
Имя файла D:BitCometChaise Lounge(flac)2012 - InsomniaChaise Lounge - Insomnia.wav
Пиковый уровень 99.1 %
Скорость извлечения 8.6 X
Качество диапазона 100.0 %
CRC теста 1F8D8E84
CRC копии 1F8D8E84
Копирование... OK
Ошибок не произошло
AccurateRip: сводка
Трек 1 : извлечено точно (доверие 1) [5A95B3A2] (AR v2)
Трек 2 : извлечено точно (доверие 1) [EB132C3E] (AR v2)
Трек 3 : извлечено точно (доверие 1) [C1657865] (AR v2)
Трек 4 : извлечено точно (доверие 1) [6A87336E] (AR v2)
Трек 5 : извлечено точно (доверие 1) [EAD563BC] (AR v2)
Трек 6 : извлечено точно (доверие 1) [83F825D1] (AR v2)
Трек 7 : извлечено точно (доверие 1) [D5D7DF40] (AR v2)
Трек 8 : извлечено точно (доверие 1) [5B0C441D] (AR v2)
Трек 9 : извлечено точно (доверие 1) [97B721D8] (AR v2)
Трек 10 : извлечено точно (доверие 1) [D7DE93E4] (AR v2)
Трек 11 : извлечено точно (доверие 1) [9D5A22DE] (AR v2)
Трек 12 : извлечено точно (доверие 1) [3644E9DE] (AR v2)
Трек 13 : извлечено точно (доверие 1) [4615E2F1] (AR v2)
Все треки извлечены точно
Конец отчёта
==== Контрольная сумма отчёта 708E5362569EAD1B7C28761CCAAB9AE2084B828188A3F709E26DA4B06FA38A2F ====

DR Log
foobar2000 1.2.6 / Dynamic Range Meter 1.1.1
log date: 2015-12-03 00:13:09
--------------------------------------------------------------------------------
Analyzed: Chaise Lounge / Insomnia
--------------------------------------------------------------------------------
DR Peak RMS Duration Track
--------------------------------------------------------------------------------
DR10 -0.37 dB -12.70 dB 4:30 01-Insomnia
DR9 -0.35 dB -11.14 dB 3:00 02-Surprisingly
DR8 -0.09 dB -10.08 dB 3:38 03-Houdini
DR7 -0.47 dB -10.42 dB 3:46 04-Bali H'ai
DR8 -0.39 dB -9.58 dB 3:36 05-43 Good Reasons
DR10 -0.54 dB -14.44 dB 4:42 06-The Devil on My Cellphone
DR7 -0.16 dB -9.84 dB 2:59 07-The Whole Wide World
DR8 -0.42 dB -11.37 dB 3:11 08-So Hush
DR9 -0.39 dB -11.17 dB 5:37 09-Ode To Billy Jo
DR8 -0.35 dB -10.02 dB 2:48 10-A Man Who Can Cook
DR7 -0.34 dB -10.11 dB 4:29 11-Slow Burn
DR8 -0.07 dB -10.08 dB 3:36 12-If I Only Had A Brain
DR9 -0.48 dB -11.26 dB 3:41 13-I'm Going To Ruin Your Day
--------------------------------------------------------------------------------
Number of tracks: 13
Official DR value: DR8
Samplerate: 44100 Hz
Channels: 2
Bits per sample: 16
Bitrate: 895 kbps
Codec: FLAC
================================================================================

CUETools Log
[CUETools log; Date: 03.12.2015 0:12:11; Version: 2.1.5]
[CTDB TOCID: cRlwjE4XoljgT1f.DbTY.4mo67g-] found.
Track | CTDB Status
1 | (2/2) Accurately ripped
2 | (2/2) Accurately ripped
3 | (2/2) Accurately ripped
4 | (2/2) Accurately ripped
5 | (2/2) Accurately ripped
6 | (2/2) Accurately ripped
7 | (2/2) Accurately ripped
8 | (2/2) Accurately ripped
9 | (2/2) Accurately ripped
10 | (2/2) Accurately ripped
11 | (2/2) Accurately ripped
12 | (2/2) Accurately ripped
13 | (2/2) Accurately ripped
[AccurateRip ID: 0017bcf0-00ed90b0-a90b9c0d] found.
Track [ CRC | V2 ] Status
01 [5467f754|5a95b3a2] (0+4/4) Accurately ripped
02 [749daa98|eb132c3e] (0+4/4) Accurately ripped
03 [e5f494a7|c1657865] (0+4/4) Accurately ripped
04 [4344c4d0|6a87336e] (0+4/4) Accurately ripped
05 [6c0cb4b8|ead563bc] (0+4/4) Accurately ripped
06 [6353bf58|83f825d1] (0+4/4) Accurately ripped
07 [35f39a02|d5d7df40] (0+4/4) Accurately ripped
08 [a1e5cef4|5b0c441d] (0+4/4) Accurately ripped
09 [949d47d5|97b721d8] (0+3/3) Accurately ripped
10 [29fc4e27|d7de93e4] (0+4/4) Accurately ripped
11 [ceb95cda|9d5a22de] (0+4/4) Accurately ripped
12 [83a42a24|3644e9de] (0+4/4) Accurately ripped
13 [67f3c147|4615e2f1] (0+4/4) Accurately ripped
Track Peak [ CRC32 ] [W/O NULL] [ LOG ]
-- 99,1 [1F8D8E84] [D8AEAE50] CRC32
01 95,8 [C4335541] [A8FDE0AA]
02 96,1 [80CD6166] [DC67DBEF]
03 98,9 [6D9077E8] [3ABAFC50]
04 94,7 [D24A285F] [34B2B152]
05 95,5 [0408623C] [4845ACE5]
06 93,9 [EB216575] [6F451A32]
07 98,1 [B41A1263] [5C710B8D]
08 95,2 [9E545D46] [BF5DFB40]
09 95,6 [34A65359] [4795830C]
10 96,0 [AACAB493] [BEB48384]
11 96,1 [7AEA7F30] [9B9D8E2C]
12 99,1 [F1844ADD] [56D49885]
13 94,6 [79449267] [A5AFB3BE]

See also:
Chaise Lounge - Dot Dot Dot (2013)
Chaise Lounge - Gin Fizz Fandango (2015)

Download Now :

 
[related-news] Related News:

{related-news} [/related-news]

ADVERTISING » Full And Free Download
Direct Download Free Chaise Lounge - Insomnia .zip
« ADVERTISING

Chaise Lounge - Insomnia Copyright

dlbin periodically updates infomation and download links of Chaise Lounge - Insomnia .You should confirm all information before relying on it. eBook piracy is theft, Chaise Lounge - Insomnia download torrent,direct link,prefiles.com,Chaise Lounge - Insomnia dropbox.com,Chaise Lounge - Insomnia mediafire.com,Chaise Lounge - Insomnia rapidgator.net,Chaise Lounge - Insomnia filefactory.com,Chaise Lounge - Insomnia uploaded.net,oboom.com at here Please contact hostfile


Write a Comment For"Chaise Lounge - Insomnia "




Recent searches:
File searchcloudcache.php not found.

Remember Me?
BOOKSMARK US

rss feed

Get newest via RSS reader

feed burner

Mail Daily Letter

Enter your email address:

PUBLICATION ARCHIVE
«    March 2017    »
MonTueWedThuFriSatSun
 12345
6789101112
13141516171819
20212223242526
2728293031 

Main/Menu

WE RECOMMEND TO VISIT:

^ Top