Loading...


Loading




Author : Poster | Date : 3-12-2015, 08:20 | Comments : 0 |
|

Journey - Infinity (1978) (BSCD2)
Rock | 1cd | EAC Rip | Flac + Cue + Log | covers
Sony SICP-30134 | rem: 2013 | 265Mb + 260Mb scans

By 1977 Journey had reached a creative crossroads, with three underwhelming studio albums under their belt and little to show in the way of commercial success. At the prodding of manager Herbie Herbert, who felt a major shakeup was needed in order to reignite their spark, the band was convinced to audition and eventually recruit the services of former Alien Project vocalist Steve Perry. Sure enough, adding him to the band just prior to the sessions for Infinity proved to be a stroke of genius, and a move that undeniably altered the course of history for the fledging Bay Area act.

By 1977 Journey had reached a creative crossroads, with three underwhelming studio albums under their belt and little to show in the way of commercial success. At the prodding of manager Herbie Herbert, who felt a major shakeup was needed in order to reignite their spark, the band was convinced to audition and eventually recruit the services of former Alien Project vocalist Steve Perry. Sure enough, adding him to the band just prior to the sessions for Infinity proved to be a stroke of genius, and a move that undeniably altered the course of history for the fledging Bay Area act. Released in January of 1978, Infinity easily proved to be the band's most cohesive work to date. Dead and buried were the jazz fusion overtones of previous offerings, and with the new songwriting combo of Perry/Neal Schon leading the march, the band set out to completely redefine their sound. Traditional pop arrangements were now adopted, cutting out the unnecessary musical fat, and allowing each bandmember to play to his strength: Perry's soaring, whale of a voice, Schon's scorching fret work, and Gregg Rolie's subtle keyboard arrangements. Enlisting eccentric producer Roy Thomas Baker (already famous for guiding the likes of Queen and Nazareth to giant commercial triumphs of their own) also proved to be a rewarding move for the boys. With newfound confidence, Journey crafted a record that could finally land them on the radio. Loaded with future FM staples like "Wheel in the Sky" (which hit the Top 50 in April of 1978), "Lights" (which quietly peaked at number 68 that August), and "Anytime" (pretty much a flop, crawling to number 83 in July), Infinity introduced Journey to an entirely new audience. Even non-singles like "Patiently (the first tune Perry ever wrote with Schon) and "Somethin' to Hide" were leaps and bounds beyond the band's previous accomplishments. And, ultimately, though Infinity merely introduced the band to mainstream radio (it was the never-ending tour on which the band embarked on to support it that drove the disc past the platinum plateau), it effectively cemented their rep as one of America's most beloved (and sometimes hated) commercial rock/pop bands. With over 170 shows under their belts, Journey had just begin to hit their stride. ~Allmusic
Track listing
01. Lights (3:11)
02. Feeling That Way (3:28)
03. Anytime (3:28)
04. La Do Da (3:01)
05. Patiently (3:21)
06. Wheel In The Sky (4:12)
07. Somethin' To Hide (3:27)
08. Winds Of March (5:04)
09. Can Do (2:39)
10. Opened The Door (4:36)
~ (36:28)
Personnel
- Steve Perry – lead vocals (all but 2 & 3)
- Neal Schon – electric and acoustic guitars, backing vocals
- Gregg Rolie – keyboards, backing and lead (2 & 3) vocals
- Ross Valory – bass guitar, backing vocals
- Aynsley Dunbar – drums, percussion
eac log:

Exact Audio Copy V1.0 beta 3 from 29. August 2011
EAC extraction logfile from 3. May 2013, 21:50
Journey / Infinity BSCD2
Used drive : PLEXTOR BD-R PX-B950SA Adapter: 6 ID: 0
Read mode : Secure
Utilize accurate stream : Yes
Defeat audio cache : Yes
Make use of C2 pointers : No
Read offset correction : 6
Overread into Lead-In and Lead-Out : No
Fill up missing offset samples with silence : Yes
Delete leading and trailing silent blocks : No
Null samples used in CRC calculations : Yes
Used interface : Native Win32 interface for Win NT & 2000
Used output format : Internal WAV Routines
Sample format : 44.100 Hz; 16 Bit; Stereo
TOC of the extracted CD
Track | Start | Length | Start sector | End sector
---------------------------------------------------------
1 | 0:00.00 | 3:10.38 | 0 | 14287
2 | 3:10.38 | 3:27.73 | 14288 | 29885
3 | 6:38.36 | 3:28.29 | 29886 | 45514
4 | 10:06.65 | 3:01.32 | 45515 | 59121
5 | 13:08.22 | 3:20.57 | 59122 | 74178
6 | 16:29.04 | 4:12.22 | 74179 | 93100
7 | 20:41.26 | 3:26.70 | 93101 | 108620
8 | 24:08.21 | 5:04.14 | 108621 | 131434
9 | 29:12.35 | 2:39.24 | 131435 | 143383
10 | 31:51.59 | 4:35.68 | 143384 | 164076
Range status and errors
Selected range
Filename C:UsersMeijinDesktopLossless_ ALLexxessJourney1978 Infinity (Sony Music Japan Mini LP BSCD2 2013)Journey - Infinity BSCD2.wav
Peak level 98.8 %
Extraction speed 6.6 X
Range quality 100.0 %
Test CRC 17944AC9
Copy CRC 17944AC9
Copy OK
No errors occurred
AccurateRip summary
Track 1 not present in database
Track 2 not present in database
Track 3 not present in database
Track 4 not present in database
Track 5 not present in database
Track 6 not present in database
Track 7 not present in database
Track 8 not present in database
Track 9 not present in database
Track 10 not present in database
None of the tracks are present in the AccurateRip database
End of status report
==== Log checksum DFB878A418759516097195F28D317EF1A9B19A7C420717E55A21238D252D6C51 ====

cuetools report:

[CUETools log; Date: 2015.12.01. 13:34:49; Version: 2.1.5]
[CTDB TOCID: vqHeRgNZ40z.fVDn3uqezmCZ78o-] found.
Track | CTDB Status
1 | (6/6) Accurately ripped
2 | (6/6) Accurately ripped
3 | (6/6) Accurately ripped
4 | (6/6) Accurately ripped
5 | (6/6) Accurately ripped
6 | (6/6) Accurately ripped
7 | (6/6) Accurately ripped
8 | (6/6) Accurately ripped
9 | (6/6) Accurately ripped
10 | (6/6) Accurately ripped
[AccurateRip ID: 000d2d78-006a8e58-76088b0a] found.
Track [ CRC | V2 ] Status
01 [c9edfa60|ecb171d1] (0+4/4) Accurately ripped
02 [59642c8f|b4570c71] (0+4/4) Accurately ripped
03 [0439ba92|e60f2ee0] (0+4/4) Accurately ripped
04 [c291d957|28d6eb4a] (0+4/4) Accurately ripped
05 [292271e3|ff519551] (0+4/4) Accurately ripped
06 [2f0b3880|2d772dc4] (0+4/4) Accurately ripped
07 [f54c6b88|4e90fd3e] (0+4/4) Accurately ripped
08 [014c6ad6|0004c590] (0+4/4) Accurately ripped
09 [f1a55fa2|e9ff38ac] (0+4/4) Accurately ripped
10 [940ce927|082b0764] (0+4/4) Accurately ripped
Track Peak [ CRC32 ] [W/O NULL] [ LOG ]
-- 98,8 [17944AC9] [960806B2] CRC32
01 98,8 [5D7B87F7] [EFC1F9F0]
02 98,8 [9DBFD8AC] [EE8CBF51]
03 98,8 [8C628A14] [8B47293F]
04 98,8 [0C3546D6] [B9C09250]
05 98,8 [D51C77C3] [B6BAC470]
06 98,8 [CD177CA3] [80F5FAC9]
07 98,8 [7E89AFA8] [F1824202]
08 98,8 [E415D47B] [B7D7BADA]
09 98,8 [9A163A32] [F7280665]
10 98,8 [94C803DA] [D975BD41]

Thx to ALLexxess

Download Now :

 
[related-news] Related News:

{related-news} [/related-news]

ADVERTISING » Full And Free Download
Direct Download Free Journey - Infinity .zip
« ADVERTISING

Journey - Infinity Copyright

dlbin periodically updates infomation and download links of Journey - Infinity .You should confirm all information before relying on it. eBook piracy is theft, Journey - Infinity download torrent,direct link,prefiles.com,Journey - Infinity dropbox.com,Journey - Infinity mediafire.com,Journey - Infinity rapidgator.net,Journey - Infinity filefactory.com,Journey - Infinity uploaded.net,oboom.com at here Please contact hostfile


Write a Comment For"Journey - Infinity "




Recent searches:
File searchcloudcache.php not found.

Remember Me?
BOOKSMARK US

rss feed

Get newest via RSS reader

feed burner

Mail Daily Letter

Enter your email address:

PUBLICATION ARCHIVE
«    March 2017    »
MonTueWedThuFriSatSun
 12345
6789101112
13141516171819
20212223242526
2728293031 

Main/Menu

WE RECOMMEND TO VISIT:

^ Top