Loading...


Loading




Author : Poster | Date : 3-12-2015, 08:20 | Comments : 0 |
|

Solution .45 - Nightmares In The Waking State - Part I (2015)
EAC Rip | FLAC: Image+Cue+Log | 482 Mb | MP3 CBR 320 kbps | 177 Mb | Scans | Time: 59:48
Genre: Melodic Death Metal | Label: AFM Records | Cat.№: AFM 447-2

Nightmares in the Waking State - Part I is the second studio album by Swedish metal band Solution .45. It turned out to be a monstrous project to assemble and the most complex and most challenging mixing task to date for everyone involved. The new direction contained all the ingredients “For Aeons Past” was known for but with added groove, aggression and darker elements. A dynamic journey from soft moody parts to soaring aggressive, darker elements. “Nightmares In The Waking State - Part I” is again a lesson in modern metal taught by the same people that helped write the book on the genre: crushing mammoth riffs, melancholic passages, infectious hooks, and blistering solos.


Nightmares in the Waking State - Part I is the second studio album by Swedish metal band Solution .45. It turned out to be a monstrous project to assemble and the most complex and most challenging mixing task to date for everyone involved. The new direction contained all the ingredients “For Aeons Past” was known for but with added groove, aggression and darker elements. A dynamic journey from soft moody parts to soaring aggressive, darker elements. “Nightmares In The Waking State - Part I” is again a lesson in modern metal taught by the same people that helped write the book on the genre: crushing mammoth riffs, melancholic passages, infectious hooks, and blistering solos.

Track Listing
01. Wanderer From The Fold (05:18)
02. Perfecting The Void (05:31)
03. Bleed Heavens Dry (05:09)
04. Winning Where Losing Is All (05:58)
05. In Moments Of Despair (06:24)
06. Second To None (05:10)
07. Targeting Blaze (04:56)
08. Alter (The Unbearable Weight Of Nothing) (04:30)
09. Wield The Scepter (05:16)
10. I, Nemesis (11:32)
Produced by Solution .45 & Plec
The Band
• Christian Älvestam (Unmoored, Miseration, Torchbearer, ex- Scar Symmetry) - Vocals
• Patrik Gardberg (The Few Against Many) - Rhythm and Lead Guitars
• Rolf Pilve (Division of the Spoils, Essence of Sorrow, Megiddon, Random Eyes, Status Minor) - Drums
• Jani Stefanović (Miseration, Essence Of Sorrow) - Guitars, Bass
Additional Musicians
• Johan Randén - Lead Guitar (track 9)
• Daniel "Daaz" Valström - Backing Vocals (tracks 1, 2, 3, 7, 9)
EAC Log
Exact Audio Copy V1.1 from 23. June 2015
EAC extraction logfile from 1. December 2015, 16:23
Solution .45 / Nightmares in the Waking State: Part I
Used drive : ATAPI iHAS122 W Adapter: 2 ID: 0
Read mode : Secure
Utilize accurate stream : Yes
Defeat audio cache : Yes
Make use of C2 pointers : No
Read offset correction : 48
Overread into Lead-In and Lead-Out : No
Fill up missing offset samples with silence : Yes
Delete leading and trailing silent blocks : No
Null samples used in CRC calculations : Yes
Used interface : Installed external ASPI interface
Used output format : User Defined Encoder
Selected bitrate : 1024 kBit/s
Quality : High
Add ID3 tag : No
Command line compressor : C:Program FilesFLACflac.exe
Additional command line options : -V -8 -T "Date=%year%" -T "Genre=%genre%" -T"COMMENT=Ripped by Ilijan" -8 -V %source%
TOC of the extracted CD
Track | Start | Length | Start sector | End sector
---------------------------------------------------------
1 | 0:00.00 | 5:18.38 | 0 | 23887
2 | 5:18.38 | 5:31.02 | 23888 | 48714
3 | 10:49.40 | 5:09.60 | 48715 | 71949
4 | 15:59.25 | 5:58.27 | 71950 | 98826
5 | 21:57.52 | 6:24.12 | 98827 | 127638
6 | 28:21.64 | 5:10.12 | 127639 | 150900
7 | 33:32.01 | 4:56.24 | 150901 | 173124
8 | 38:28.25 | 4:30.34 | 173125 | 193408
9 | 42:58.59 | 5:16.07 | 193409 | 217115
10 | 48:14.66 | 11:32.49 | 217116 | 269064
Range status and errors
Selected range
Filename D:ilкоSolution .45 - Nightmares in the Waking State- Part I.wav
Peak level 97.5 %
Extraction speed 4.0 X
Range quality 100.0 %
Test CRC 96B39EF2
Copy CRC 96B39EF2
Copy OK
No errors occurred
AccurateRip summary
Track 1 not present in database
Track 2 not present in database
Track 3 not present in database
Track 4 not present in database
Track 5 not present in database
Track 6 not present in database
Track 7 not present in database
Track 8 not present in database
Track 9 not present in database
Track 10 not present in database
None of the tracks are present in the AccurateRip database
End of status report
---- CUETools DB Plugin V2.1.6
[CTDB TOCID: R.7ysVyCTfnCDv0sfwjwGVsVHDc-] found
Submit result: R.7ysVyCTfnCDv0sfwjwGVsVHDc- has been confirmed
Track | CTDB Status
1 | (6/6) Accurately ripped
2 | (6/6) Accurately ripped
3 | (6/6) Accurately ripped
4 | (6/6) Accurately ripped
5 | (6/6) Accurately ripped
6 | (6/6) Accurately ripped
7 | (6/6) Accurately ripped
8 | (6/6) Accurately ripped
9 | (6/6) Accurately ripped
10 | (6/6) Accurately ripped
==== Log checksum 0EB63C4DC4DBC4439714FFA8B6AB73626937B1EDBA6EB527742847538ABC0464 ====

Many thanks to the original uploader: Ilijan

Download Now :

 
[related-news] Related News:

{related-news} [/related-news]

ADVERTISING » Full And Free Download
Direct Download Free Solution .45 - Nightmares In The Waking State - Part I .zip
« ADVERTISING

Solution .45 - Nightmares In The Waking State - Part I Copyright

dlbin periodically updates infomation and download links of Solution .45 - Nightmares In The Waking State - Part I .You should confirm all information before relying on it. eBook piracy is theft, Solution .45 - Nightmares In The Waking State - Part I download torrent,direct link,prefiles.com,Solution .45 - Nightmares In The Waking State - Part I dropbox.com,Solution .45 - Nightmares In The Waking State - Part I mediafire.com,Solution .45 - Nightmares In The Waking State - Part I rapidgator.net,Solution .45 - Nightmares In The Waking State - Part I filefactory.com,Solution .45 - Nightmares In The Waking State - Part I uploaded.net,oboom.com at here Please contact hostfile


Write a Comment For"Solution .45 - Nightmares In The Waking State - Part I "




Recent searches:
File searchcloudcache.php not found.

Remember Me?
BOOKSMARK US

rss feed

Get newest via RSS reader

feed burner

Mail Daily Letter

Enter your email address:

PUBLICATION ARCHIVE
«    January 2017    »
MonTueWedThuFriSatSun
 1
2345678
9101112131415
16171819202122
23242526272829
3031 

Main/Menu

WE RECOMMEND TO VISIT:

^ Top