Loading...


Loading




Author : Poster | Date : 3-12-2015, 08:57 | Comments : 0 |
|

John Lee Hooker - The Very Best Of John Lee Hooker (1999)
EAC | FLAC | Tracks (Cue & Log) ~ 660 mb | MP3 320 kbps CBR ~ 331 mb | Scans included | 128 min
Blues | Label: Not Now Music | Rel: 1999

A million or so collections, all from different record labels, document this Detroit blues guitarist's influential boogie-woogie career. This 45-song is an excellent starting point, with definitive versions of Hooker's classics "Boom Boom," "Boogie Chillen'," "I'm in the Mood," and "One Bourbon, One Scotch, One Beer." It's interesting to hear the singer's voice progress from a deep, growling slur to the more polished later material, such as his collaboration with slide guitarist Roy Rogers on Robert Johnson's "Terraplane Blues," but he never lost his bottom-line rawness.

A million or so collections, all from different record labels, document this Detroit blues guitarist's influential boogie-woogie career. This 45-song is an excellent starting point, with definitive versions of Hooker's classics "Boom Boom," "Boogie Chillen'," "I'm in the Mood," and "One Bourbon, One Scotch, One Beer." It's interesting to hear the singer's voice progress from a deep, growling slur to the more polished later material, such as his collaboration with slide guitarist Roy Rogers on Robert Johnson's "Terraplane Blues," but he never lost his bottom-line rawness.
Tracklist:
CD 1:
01 Boom Boom
02 Dimples
03 I'm in the Mood
04 I'm So Excited
05 Hard Hearted Woman
06 Want Ad Blues
07 I Wanna Walk
08 Onions
09 Thelma
10 Send Me Your Pillow
11 Lost a Good Girl
12 House Rent Boogie
13 What Do You Say
14 Blues Before Sunrise
15 Process
16 Let's Make It
17 I'm Leaving Baby
18 She's Mine (Keep Your Hands to Yourself)
19 Baby Lee
20 I'm Goin' Upstairs
EAC log CD1
Exact Audio Copy V1.1 from 23. June 2015
EAC extraction logfile from 12. November 2015, 15:35
John Lee Hooker / The Very Best of John Lee Hooker
Used drive : Optiarc DVD RW AD-7260S Adapter: 1 ID: 0
Read mode : Secure
Utilize accurate stream : Yes
Defeat audio cache : Yes
Make use of C2 pointers : No
Read offset correction : 48
Overread into Lead-In and Lead-Out : No
Fill up missing offset samples with silence : Yes
Delete leading and trailing silent blocks : No
Null samples used in CRC calculations : Yes
Used interface : Native Win32 interface for Win NT & 2000
Gap handling : Appended to previous track
Used output format : User Defined Encoder
Selected bitrate : 1024 kBit/s
Quality : High
Add ID3 tag : No
Command line compressor : C:Program Files (x86)Exact Audio CopyFlacflac.exe
Additional command line options : -8 -V -T "ARTIST=%artist%" -T "TITLE=%title%" -T "ALBUM=%albumtitle%" -T "DATE=%year%" -T "TRACKNUMBER=%tracknr%" -T "GENRE=%genre%" -T "PERFORMER=%albuminterpret%" -T "COMPOSER=%composer%" %haslyrics%--tag-from-file=LYRICS="%lyricsfile%"%haslyrics% -T "ALBUMARTIST=%albumartist%" -T "DISCNUMBER=%cdnumber%" -T "TOTALDISCS=%totalcds%" -T "TOTALTRACKS=%numtracks%" -T "COMMENT=%comment%" %source% -o %dest%
TOC of the extracted CD
Track | Start | Length | Start sector | End sector
---------------------------------------------------------
1 | 0:00.00 | 2:30.43 | 0 | 11292
2 | 2:30.43 | 2:14.29 | 11293 | 21371
3 | 4:44.72 | 2:41.60 | 21372 | 33506
4 | 7:26.57 | 2:54.20 | 33507 | 46576
5 | 10:21.02 | 2:30.70 | 46577 | 57896
6 | 12:51.72 | 2:21.31 | 57897 | 68502
7 | 15:13.28 | 2:14.57 | 68503 | 78609
8 | 17:28.10 | 2:09.41 | 78610 | 88325
9 | 19:37.51 | 3:32.14 | 88326 | 104239
10 | 23:09.65 | 2:25.74 | 104240 | 115188
11 | 25:35.64 | 1:56.09 | 115189 | 123897
12 | 27:31.73 | 4:01.11 | 123898 | 141983
13 | 31:33.09 | 2:30.46 | 141984 | 153279
14 | 34:03.55 | 3:50.31 | 153280 | 170560
15 | 37:54.11 | 3:37.14 | 170561 | 186849
16 | 41:31.25 | 2:22.02 | 186850 | 197501
17 | 43:53.27 | 2:11.38 | 197502 | 207364
18 | 46:04.65 | 2:21.19 | 207365 | 217958
19 | 48:26.09 | 2:57.28 | 217959 | 231261
20 | 51:23.37 | 2:59.65 | 231262 | 244751
Track 1
Filename F:Muzikaupload whatJohn Lee Hooker - The Very Best Of John Lee Hooker (2009) FLACDisc 11 Boom Boom.wav
Pre-gap length 0:00:02.00
Peak level 98.3 %
Extraction speed 2.1 X
Track quality 100.0 %
Test CRC 52A9304A
Copy CRC 52A9304A
Accurately ripped (confidence 5) [F5FC8812] (AR v2)
Copy OK
Track 2
Filename F:Muzikaupload whatJohn Lee Hooker - The Very Best Of John Lee Hooker (2009) FLACDisc 12 Dimples.wav
Pre-gap length 0:00:01.77
Peak level 98.4 %
Extraction speed 2.1 X
Track quality 100.0 %
Test CRC 6CC27AA9
Copy CRC 6CC27AA9
Accurately ripped (confidence 4) [8C53B56C] (AR v2)
Copy OK
Track 3
Filename F:Muzikaupload whatJohn Lee Hooker - The Very Best Of John Lee Hooker (2009) FLACDisc 13 I'm in the Mood.wav
Pre-gap length 0:00:01.77
Peak level 98.7 %
Extraction speed 2.4 X
Track quality 100.0 %
Test CRC 2AC7C1A5
Copy CRC 2AC7C1A5
Accurately ripped (confidence 5) [B86697E1] (AR v2)
Copy OK
Track 4
Filename F:Muzikaupload whatJohn Lee Hooker - The Very Best Of John Lee Hooker (2009) FLACDisc 14 I'm So Excited.wav
Pre-gap length 0:00:01.77
Peak level 98.7 %
Extraction speed 2.2 X
Track quality 99.9 %
Test CRC 492420AA
Copy CRC 492420AA
Accurately ripped (confidence 5) [9BC1C5FA] (AR v2)
Copy OK
Track 5
Filename F:Muzikaupload whatJohn Lee Hooker - The Very Best Of John Lee Hooker (2009) FLACDisc 15 Hard Hearted Woman.wav
Pre-gap length 0:00:01.77
Peak level 98.4 %
Extraction speed 2.6 X
Track quality 100.0 %
Test CRC F3BCC578
Copy CRC F3BCC578
Accurately ripped (confidence 5) [BA36F4C4] (AR v2)
Copy OK
Track 6
Filename F:Muzikaupload whatJohn Lee Hooker - The Very Best Of John Lee Hooker (2009) FLACDisc 16 Want Ad Blues.wav
Pre-gap length 0:00:01.77
Peak level 98.4 %
Extraction speed 2.3 X
Track quality 99.9 %
Test CRC 7CD65583
Copy CRC 7CD65583
Accurately ripped (confidence 5) [0B7A110D] (AR v2)
Copy OK
Track 7
Filename F:Muzikaupload whatJohn Lee Hooker - The Very Best Of John Lee Hooker (2009) FLACDisc 17 I Wanna Walk.wav
Pre-gap length 0:00:01.77
Peak level 98.4 %
Extraction speed 2.3 X
Track quality 99.9 %
Test CRC B92356DE
Copy CRC B92356DE
Accurately ripped (confidence 5) [D8CC7739] (AR v2)
Copy OK
Track 8
Filename F:Muzikaupload whatJohn Lee Hooker - The Very Best Of John Lee Hooker (2009) FLACDisc 18 Onions.wav
Pre-gap length 0:00:01.77
Peak level 98.7 %
Extraction speed 2.9 X
Track quality 100.0 %
Test CRC 48FB7FFB
Copy CRC 48FB7FFB
Accurately ripped (confidence 5) [42A310F8] (AR v2)
Copy OK
Track 9
Filename F:Muzikaupload whatJohn Lee Hooker - The Very Best Of John Lee Hooker (2009) FLACDisc 19 Thelma.wav
Pre-gap length 0:00:01.77
Peak level 98.5 %
Extraction speed 3.3 X
Track quality 100.0 %
Test CRC 1C8E2CFD
Copy CRC 1C8E2CFD
Accurately ripped (confidence 5) [74334ECD] (AR v2)
Copy OK
Track 10
Filename F:Muzikaupload whatJohn Lee Hooker - The Very Best Of John Lee Hooker (2009) FLACDisc 110 Send Me Your Pillow.wav
Pre-gap length 0:00:01.77
Peak level 98.6 %
Extraction speed 3.2 X
Track quality 100.0 %
Test CRC 0221E8FB
Copy CRC 0221E8FB
Accurately ripped (confidence 5) [FC0466CA] (AR v2)
Copy OK
Track 11
Filename F:Muzikaupload whatJohn Lee Hooker - The Very Best Of John Lee Hooker (2009) FLACDisc 111 Lost a Good Girl.wav
Pre-gap length 0:00:01.77
Peak level 98.3 %
Extraction speed 3.1 X
Track quality 100.0 %
Test CRC 5F433930
Copy CRC 5F433930
Accurately ripped (confidence 5) [129E6294] (AR v2)
Copy OK
Track 12
Filename F:Muzikaupload whatJohn Lee Hooker - The Very Best Of John Lee Hooker (2009) FLACDisc 112 House Rent Boogie.wav
Pre-gap length 0:00:01.77
Peak level 98.8 %
Extraction speed 3.7 X
Track quality 100.0 %
Test CRC 4383211C
Copy CRC 4383211C
Accurately ripped (confidence 5) [1C7F841B] (AR v2)
Copy OK
Track 13
Filename F:Muzikaupload whatJohn Lee Hooker - The Very Best Of John Lee Hooker (2009) FLACDisc 113 What Do You Say.wav
Pre-gap length 0:00:01.77
Peak level 98.8 %
Extraction speed 3.5 X
Track quality 100.0 %
Test CRC 0FFB4578
Copy CRC 0FFB4578
Accurately ripped (confidence 5) [0B93329D] (AR v2)
Copy OK
Track 14
Filename F:Muzikaupload whatJohn Lee Hooker - The Very Best Of John Lee Hooker (2009) FLACDisc 114 Blues Before Sunrise.wav
Pre-gap length 0:00:01.77
Peak level 98.5 %
Extraction speed 3.5 X
Track quality 99.9 %
Test CRC 3008CE27
Copy CRC 3008CE27
Accurately ripped (confidence 5) [0B9DF513] (AR v2)
Copy OK
Track 15
Filename F:Muzikaupload whatJohn Lee Hooker - The Very Best Of John Lee Hooker (2009) FLACDisc 115 Process.wav
Pre-gap length 0:00:01.77
Peak level 98.8 %
Extraction speed 4.1 X
Track quality 100.0 %
Test CRC B1ABFBE7
Copy CRC B1ABFBE7
Accurately ripped (confidence 5) [9253F333] (AR v2)
Copy OK
Track 16
Filename F:Muzikaupload whatJohn Lee Hooker - The Very Best Of John Lee Hooker (2009) FLACDisc 116 Let's Make It.wav
Pre-gap length 0:00:01.77
Peak level 98.7 %
Extraction speed 3.8 X
Track quality 100.0 %
Test CRC 443378BB
Copy CRC 443378BB
Accurately ripped (confidence 5) [C873DC08] (AR v2)
Copy OK
Track 17
Filename F:Muzikaupload whatJohn Lee Hooker - The Very Best Of John Lee Hooker (2009) FLACDisc 117 I'm Leaving Baby.wav
Pre-gap length 0:00:01.77
Peak level 98.8 %
Extraction speed 3.9 X
Track quality 100.0 %
Test CRC 79D6EB9B
Copy CRC 79D6EB9B
Accurately ripped (confidence 5) [B0119982] (AR v2)
Copy OK
Track 18
Filename F:Muzikaupload whatJohn Lee Hooker - The Very Best Of John Lee Hooker (2009) FLACDisc 118 She's Mine (Keep Your Hands to Yourself).wav
Pre-gap length 0:00:01.77
Peak level 98.8 %
Extraction speed 4.0 X
Track quality 100.0 %
Test CRC C4B342FB
Copy CRC C4B342FB
Accurately ripped (confidence 5) [E8935DF8] (AR v2)
Copy OK
Track 19
Filename F:Muzikaupload whatJohn Lee Hooker - The Very Best Of John Lee Hooker (2009) FLACDisc 119 Baby Lee.wav
Pre-gap length 0:00:01.77
Peak level 98.4 %
Extraction speed 4.3 X
Track quality 100.0 %
Test CRC 5F02B2CF
Copy CRC 5F02B2CF
Accurately ripped (confidence 5) [31F7598C] (AR v2)
Copy OK
Track 20
Filename F:Muzikaupload whatJohn Lee Hooker - The Very Best Of John Lee Hooker (2009) FLACDisc 120 I'm Goin' Upstairs.wav
Pre-gap length 0:00:01.77
Peak level 98.4 %
Extraction speed 4.3 X
Track quality 100.0 %
Test CRC 2FC0F01B
Copy CRC 2FC0F01B
Accurately ripped (confidence 5) [E102F541] (AR v2)
Copy OK
All tracks accurately ripped
No errors occurred
End of status report
---- CUETools DB Plugin V2.1.6
[CTDB TOCID: sNHCM4HSp8QbRnRK684264_MXv8-] found
Submit result: sNHCM4HSp8QbRnRK684264_MXv8- has been confirmed
Track | CTDB Status
1 | (21/21) Accurately ripped
2 | (21/21) Accurately ripped
3 | (21/21) Accurately ripped
4 | (21/21) Accurately ripped
5 | (21/21) Accurately ripped
6 | (21/21) Accurately ripped
7 | (21/21) Accurately ripped
8 | (21/21) Accurately ripped
9 | (21/21) Accurately ripped
10 | (21/21) Accurately ripped
11 | (21/21) Accurately ripped
12 | (21/21) Accurately ripped
13 | (21/21) Accurately ripped
14 | (21/21) Accurately ripped
15 | (21/21) Accurately ripped
16 | (21/21) Accurately ripped
17 | (21/21) Accurately ripped
18 | (21/21) Accurately ripped
19 | (21/21) Accurately ripped
20 | (21/21) Accurately ripped
==== Log checksum 81CFE73CAC6895CCE050AA3A7ECE21828B2A109C3BFC45EAD32A523F6AE2CDA8 ====

CD 2:
01 Boogie Chillen
02 Crawling Kingsnake
03 Burnin' Hell
04 Highway Blues
05 Wishin' and Moanin' Blues
06 Hoogie Boogie
07 Do the Boogie
08 Goin' Home Blues
09 Landing Blues
10 Twister Blues
11 Hastings Street Boogie
12 Miss Eloise
13 Graveyard Blues
14 Sally Mae
15 Miss Rosie Mae
16 Hobo Blues
17 Build Myself a Cave
18 Alberta
19 Lowdown Midnight Boogie
20 Momma Poppa Boogie
21 Shady Grove Blues
22 Walkin' the Boogie
23 Sugar Mama
24 Queen Bee
25 Dimples (alternate version)
EAC log CD2
Exact Audio Copy V1.1 from 23. June 2015
EAC extraction logfile from 12. November 2015, 16:23
John Lee Hooker / The Very Best of John Lee Hooker
Used drive : Optiarc DVD RW AD-7260S Adapter: 1 ID: 0
Read mode : Secure
Utilize accurate stream : Yes
Defeat audio cache : Yes
Make use of C2 pointers : No
Read offset correction : 48
Overread into Lead-In and Lead-Out : No
Fill up missing offset samples with silence : Yes
Delete leading and trailing silent blocks : No
Null samples used in CRC calculations : Yes
Used interface : Native Win32 interface for Win NT & 2000
Gap handling : Appended to previous track
Used output format : User Defined Encoder
Selected bitrate : 1024 kBit/s
Quality : High
Add ID3 tag : No
Command line compressor : C:Program Files (x86)Exact Audio CopyFlacflac.exe
Additional command line options : -8 -V -T "ARTIST=%artist%" -T "TITLE=%title%" -T "ALBUM=%albumtitle%" -T "DATE=%year%" -T "TRACKNUMBER=%tracknr%" -T "GENRE=%genre%" -T "PERFORMER=%albuminterpret%" -T "COMPOSER=%composer%" %haslyrics%--tag-from-file=LYRICS="%lyricsfile%"%haslyrics% -T "ALBUMARTIST=%albumartist%" -T "DISCNUMBER=%cdnumber%" -T "TOTALDISCS=%totalcds%" -T "TOTALTRACKS=%numtracks%" -T "COMMENT=%comment%" %source% -o %dest%
TOC of the extracted CD
Track | Start | Length | Start sector | End sector
---------------------------------------------------------
1 | 0:00.00 | 3:09.39 | 0 | 14213
2 | 3:09.39 | 3:00.48 | 14214 | 27761
3 | 6:10.12 | 2:42.04 | 27762 | 39915
4 | 8:52.16 | 3:02.52 | 39916 | 53617
5 | 11:54.68 | 3:07.57 | 53618 | 67699
6 | 15:02.50 | 2:56.18 | 67700 | 80917
7 | 17:58.68 | 3:12.45 | 80918 | 95362
8 | 21:11.38 | 3:27.02 | 95363 | 110889
9 | 24:38.40 | 3:26.01 | 110890 | 126340
10 | 28:04.41 | 2:32.64 | 126341 | 137804
11 | 30:37.30 | 2:20.15 | 137805 | 148319
12 | 32:57.45 | 2:41.22 | 148320 | 160416
13 | 35:38.67 | 2:48.31 | 160417 | 173047
14 | 38:27.23 | 3:11.64 | 173048 | 187436
15 | 41:39.12 | 3:02.09 | 187437 | 201095
16 | 44:41.21 | 3:02.06 | 201096 | 214751
17 | 47:43.27 | 2:57.72 | 214752 | 228098
18 | 50:41.24 | 3:04.53 | 228099 | 241951
19 | 53:46.02 | 3:34.10 | 241952 | 258011
20 | 57:20.12 | 2:57.12 | 258012 | 271298
21 | 60:17.24 | 3:19.35 | 271299 | 286258
22 | 63:36.59 | 2:43.36 | 286259 | 298519
23 | 66:20.20 | 3:15.20 | 298520 | 313164
24 | 69:35.40 | 2:35.52 | 313165 | 324841
25 | 72:11.17 | 2:11.38 | 324842 | 334704
Track 1
Filename F:Muzikaupload whatJohn Lee Hooker - The Very Best Of John Lee Hooker (2009) FLACDisc 21 Boogie Chillen.wav
Pre-gap length 0:00:02.00
Peak level 98.3 %
Extraction speed 2.3 X
Track quality 100.0 %
Test CRC 4DD4185F
Copy CRC 4DD4185F
Accurately ripped (confidence 5) [0171ADE6] (AR v2)
Copy OK
Track 2
Filename F:Muzikaupload whatJohn Lee Hooker - The Very Best Of John Lee Hooker (2009) FLACDisc 22 Crawling Kingsnake.wav
Pre-gap length 0:00:01.77
Peak level 98.2 %
Extraction speed 2.4 X
Track quality 100.0 %
Test CRC 9DACAC8E
Copy CRC 9DACAC8E
Accurately ripped (confidence 5) [43EFD5E2] (AR v2)
Copy OK
Track 3
Filename F:Muzikaupload whatJohn Lee Hooker - The Very Best Of John Lee Hooker (2009) FLACDisc 23 Burnin' Hell.wav
Pre-gap length 0:00:01.77
Peak level 98.3 %
Extraction speed 2.5 X
Track quality 100.0 %
Test CRC 8BFEB0FF
Copy CRC 8BFEB0FF
Accurately ripped (confidence 5) [4F4292D9] (AR v2)
Copy OK
Track 4
Filename F:Muzikaupload whatJohn Lee Hooker - The Very Best Of John Lee Hooker (2009) FLACDisc 24 Highway Blues.wav
Pre-gap length 0:00:01.77
Peak level 98.3 %
Extraction speed 2.8 X
Track quality 100.0 %
Test CRC 0F6877F2
Copy CRC 0F6877F2
Accurately ripped (confidence 5) [BCF41434] (AR v2)
Copy OK
Track 5
Filename F:Muzikaupload whatJohn Lee Hooker - The Very Best Of John Lee Hooker (2009) FLACDisc 25 Wishin' and Moanin' Blues.wav
Pre-gap length 0:00:01.77
Peak level 98.3 %
Extraction speed 2.9 X
Track quality 100.0 %
Test CRC F40694A8
Copy CRC F40694A8
Accurately ripped (confidence 5) [BED00354] (AR v2)
Copy OK
Track 6
Filename F:Muzikaupload whatJohn Lee Hooker - The Very Best Of John Lee Hooker (2009) FLACDisc 26 Hoogie Boogie.wav
Pre-gap length 0:00:01.77
Peak level 98.3 %
Extraction speed 3.0 X
Track quality 100.0 %
Test CRC 40EB591F
Copy CRC 40EB591F
Accurately ripped (confidence 5) [ED22A818] (AR v2)
Copy OK
Track 7
Filename F:Muzikaupload whatJohn Lee Hooker - The Very Best Of John Lee Hooker (2009) FLACDisc 27 Do the Boogie.wav
Pre-gap length 0:00:01.77
Peak level 98.3 %
Extraction speed 3.3 X
Track quality 100.0 %
Test CRC 18C3859F
Copy CRC 18C3859F
Accurately ripped (confidence 5) [8BE946E3] (AR v2)
Copy OK
Track 8
Filename F:Muzikaupload whatJohn Lee Hooker - The Very Best Of John Lee Hooker (2009) FLACDisc 28 Goin' Home Blues.wav
Pre-gap length 0:00:01.77
Peak level 98.3 %
Extraction speed 3.4 X
Track quality 100.0 %
Test CRC EC71093C
Copy CRC EC71093C
Accurately ripped (confidence 5) [CBF5045B] (AR v2)
Copy OK
Track 9
Filename F:Muzikaupload whatJohn Lee Hooker - The Very Best Of John Lee Hooker (2009) FLACDisc 29 Landing Blues.wav
Pre-gap length 0:00:01.77
Peak level 98.5 %
Extraction speed 3.6 X
Track quality 100.0 %
Test CRC 9434F1C6
Copy CRC 9434F1C6
Accurately ripped (confidence 5) [D4934AC0] (AR v2)
Copy OK
Track 10
Filename F:Muzikaupload whatJohn Lee Hooker - The Very Best Of John Lee Hooker (2009) FLACDisc 210 Twister Blues.wav
Pre-gap length 0:00:01.77
Peak level 98.4 %
Extraction speed 3.5 X
Track quality 100.0 %
Test CRC 72237C72
Copy CRC 72237C72
Accurately ripped (confidence 5) [347AD116] (AR v2)
Copy OK
Track 11
Filename F:Muzikaupload whatJohn Lee Hooker - The Very Best Of John Lee Hooker (2009) FLACDisc 211 Hastings Street Boogie.wav
Pre-gap length 0:00:01.77
Peak level 98.3 %
Extraction speed 3.5 X
Track quality 100.0 %
Test CRC FA1637E3
Copy CRC FA1637E3
Accurately ripped (confidence 5) [BAD5EDCD] (AR v2)
Copy OK
Track 12
Filename F:Muzikaupload whatJohn Lee Hooker - The Very Best Of John Lee Hooker (2009) FLACDisc 212 Miss Eloise.wav
Pre-gap length 0:00:01.77
Peak level 98.3 %
Extraction speed 3.7 X
Track quality 100.0 %
Test CRC 754661B1
Copy CRC 754661B1
Accurately ripped (confidence 5) [5D198274] (AR v2)
Copy OK
Track 13
Filename F:Muzikaupload whatJohn Lee Hooker - The Very Best Of John Lee Hooker (2009) FLACDisc 213 Graveyard Blues.wav
Pre-gap length 0:00:01.77
Peak level 98.3 %
Extraction speed 3.9 X
Track quality 100.0 %
Test CRC 099F6A02
Copy CRC 099F6A02
Accurately ripped (confidence 5) [660BD42E] (AR v2)
Copy OK
Track 14
Filename F:Muzikaupload whatJohn Lee Hooker - The Very Best Of John Lee Hooker (2009) FLACDisc 214 Sally Mae.wav
Pre-gap length 0:00:01.77
Peak level 98.3 %
Extraction speed 4.0 X
Track quality 100.0 %
Test CRC 8BDFAB1D
Copy CRC 8BDFAB1D
Accurately ripped (confidence 5) [429B0525] (AR v2)
Copy OK
Track 15
Filename F:Muzikaupload whatJohn Lee Hooker - The Very Best Of John Lee Hooker (2009) FLACDisc 215 Miss Rosie Mae.wav
Pre-gap length 0:00:01.77
Peak level 98.3 %
Extraction speed 4.0 X
Track quality 100.0 %
Test CRC DA116B1A
Copy CRC DA116B1A
Accurately ripped (confidence 5) [641BDA6D] (AR v2)
Copy OK
Track 16
Filename F:Muzikaupload whatJohn Lee Hooker - The Very Best Of John Lee Hooker (2009) FLACDisc 216 Hobo Blues.wav
Pre-gap length 0:00:01.77
Peak level 98.3 %
Extraction speed 4.2 X
Track quality 100.0 %
Test CRC 71AF9CB2
Copy CRC 71AF9CB2
Accurately ripped (confidence 5) [A92EB49F] (AR v2)
Copy OK
Track 17
Filename F:Muzikaupload whatJohn Lee Hooker - The Very Best Of John Lee Hooker (2009) FLACDisc 217 Build Myself a Cave.wav
Pre-gap length 0:00:01.77
Peak level 98.3 %
Extraction speed 3.7 X
Track quality 99.9 %
Test CRC DF041A52
Copy CRC DF041A52
Accurately ripped (confidence 5) [7A182F2C] (AR v2)
Copy OK
Track 18
Filename F:Muzikaupload whatJohn Lee Hooker - The Very Best Of John Lee Hooker (2009) FLACDisc 218 Alberta.wav
Pre-gap length 0:00:01.77
Peak level 98.3 %
Extraction speed 4.4 X
Track quality 100.0 %
Test CRC 2FA18E8D
Copy CRC 2FA18E8D
Accurately ripped (confidence 5) [C1AC29A8] (AR v2)
Copy OK
Track 19
Filename F:Muzikaupload whatJohn Lee Hooker - The Very Best Of John Lee Hooker (2009) FLACDisc 219 Lowdown Midnight Boogie.wav
Pre-gap length 0:00:01.77
Peak level 98.5 %
Extraction speed 4.0 X
Track quality 99.9 %
Test CRC CA7FFE3A
Copy CRC CA7FFE3A
Accurately ripped (confidence 5) [7A781150] (AR v2)
Copy OK
Track 20
Filename F:Muzikaupload whatJohn Lee Hooker - The Very Best Of John Lee Hooker (2009) FLACDisc 220 Momma Poppa Boogie.wav
Pre-gap length 0:00:01.77
Peak level 98.3 %
Extraction speed 4.6 X
Track quality 100.0 %
Test CRC B5A737B8
Copy CRC B5A737B8
Accurately ripped (confidence 5) [35EF35B9] (AR v2)
Copy OK
Track 21
Filename F:Muzikaupload whatJohn Lee Hooker - The Very Best Of John Lee Hooker (2009) FLACDisc 221 Shady Grove Blues.wav
Pre-gap length 0:00:01.77
Peak level 98.4 %
Extraction speed 4.7 X
Track quality 100.0 %
Test CRC F07C8EE7
Copy CRC F07C8EE7
Accurately ripped (confidence 5) [F27E2B93] (AR v2)
Copy OK
Track 22
Filename F:Muzikaupload whatJohn Lee Hooker - The Very Best Of John Lee Hooker (2009) FLACDisc 222 Walkin' the Boogie.wav
Pre-gap length 0:00:01.77
Peak level 98.7 %
Extraction speed 4.7 X
Track quality 100.0 %
Test CRC 7281923C
Copy CRC 7281923C
Accurately ripped (confidence 5) [B548903F] (AR v2)
Copy OK
Track 23
Filename F:Muzikaupload whatJohn Lee Hooker - The Very Best Of John Lee Hooker (2009) FLACDisc 223 Sugar Mama.wav
Pre-gap length 0:00:01.77
Peak level 98.8 %
Extraction speed 4.9 X
Track quality 100.0 %
Test CRC FF6C2E6C
Copy CRC FF6C2E6C
Accurately ripped (confidence 5) [C1FC0D50] (AR v2)
Copy OK
Track 24
Filename F:Muzikaupload whatJohn Lee Hooker - The Very Best Of John Lee Hooker (2009) FLACDisc 224 Queen Bee.wav
Pre-gap length 0:00:01.77
Peak level 98.3 %
Extraction speed 4.0 X
Track quality 99.9 %
Test CRC 087602C4
Copy CRC 087602C4
Accurately ripped (confidence 5) [25A8197F] (AR v2)
Copy OK
Track 25
Filename F:Muzikaupload whatJohn Lee Hooker - The Very Best Of John Lee Hooker (2009) FLACDisc 225 Dimples (alternate version).wav
Pre-gap length 0:00:01.77
Peak level 98.8 %
Extraction speed 3.9 X
Track quality 99.9 %
Test CRC 1B49CAD3
Copy CRC 1B49CAD3
Accurately ripped (confidence 5) [457AEF4D] (AR v2)
Copy OK
All tracks accurately ripped
No errors occurred
End of status report
---- CUETools DB Plugin V2.1.6
[CTDB TOCID: sK.eBd7y2aU1kqDQqLYOa7_hcbU-] found
Submit result: sK.eBd7y2aU1kqDQqLYOa7_hcbU- has been confirmed
Track | CTDB Status
1 | (17/17) Accurately ripped
2 | (17/17) Accurately ripped
3 | (17/17) Accurately ripped
4 | (17/17) Accurately ripped
5 | (17/17) Accurately ripped
6 | (17/17) Accurately ripped
7 | (17/17) Accurately ripped
8 | (17/17) Accurately ripped
9 | (17/17) Accurately ripped
10 | (17/17) Accurately ripped
11 | (17/17) Accurately ripped
12 | (17/17) Accurately ripped
13 | (17/17) Accurately ripped
14 | (17/17) Accurately ripped
15 | (17/17) Accurately ripped
16 | (17/17) Accurately ripped
17 | (17/17) Accurately ripped
18 | (17/17) Accurately ripped
19 | (17/17) Accurately ripped
20 | (17/17) Accurately ripped
21 | (17/17) Accurately ripped
22 | (17/17) Accurately ripped
23 | (17/17) Accurately ripped
24 | (17/17) Accurately ripped
25 | (17/17) Accurately ripped
==== Log checksum CC02DC4871A846E14E7F67485DADA5B79F455B56EB4DA99FF0A5A66601993E54 ====

All thanks to the original uploader: Proxi

Download Now :

 
[related-news] Related News:

{related-news} [/related-news]

ADVERTISING » Full And Free Download
Direct Download Free John Lee Hooker - The Very Best Of John Lee Hooker .zip
« ADVERTISING

John Lee Hooker - The Very Best Of John Lee Hooker Copyright

dlbin periodically updates infomation and download links of John Lee Hooker - The Very Best Of John Lee Hooker .You should confirm all information before relying on it. eBook piracy is theft, John Lee Hooker - The Very Best Of John Lee Hooker download torrent,direct link,prefiles.com,John Lee Hooker - The Very Best Of John Lee Hooker dropbox.com,John Lee Hooker - The Very Best Of John Lee Hooker mediafire.com,John Lee Hooker - The Very Best Of John Lee Hooker rapidgator.net,John Lee Hooker - The Very Best Of John Lee Hooker filefactory.com,John Lee Hooker - The Very Best Of John Lee Hooker uploaded.net,oboom.com at here Please contact hostfile


Write a Comment For"John Lee Hooker - The Very Best Of John Lee Hooker "




Recent searches:
File searchcloudcache.php not found.

Remember Me?
BOOKSMARK US

rss feed

Get newest via RSS reader

feed burner

Mail Daily Letter

Enter your email address:

PUBLICATION ARCHIVE
«    January 2017    »
MonTueWedThuFriSatSun
 1
2345678
9101112131415
16171819202122
23242526272829
3031 

Main/Menu

WE RECOMMEND TO VISIT:

^ Top