Loading...


Loading




Author : Poster | Date : 3-12-2015, 09:19 | Comments : 0 |
|

VA - Have A Nice Christmas: Holiday Hits Of The 70's (1994)
EAC Rip | FLAC with CUE and log | scans | 312 mb
MP3 CBR 320kbps | RAR | 120mb
Genre: pop, country, comedy, disco, soul, country, glam rock

A compilation CD part of their Have A Nice Day series, but this honoring a specific day, that of Christmas. All of the songs are holiday oddities from the 1970's by the likes of Glen Campbell, Donny & Marie, Gary Glitter, Martin Mull, Melanie, The Osmonds, Cheech & Chong and many more.

A compilation CD part of their Have A Nice Day series, but this honoring a specific day, that of Christmas. All of the songs are holiday oddities from the 1970's by the likes of Glen Campbell, Donny & Marie, Gary Glitter, Martin Mull, Melanie, The Osmonds, Cheech & Chong and many more.
1. Bobby Sherman - Yesterday's Christmas
2. Melanie - Merry Christmas
3. The Jimmy Castor Bunch - The Christmas Song (Chestnuts Roasting On An Open Fire)
4. The Osmonds - Pine Cones And Holly Berries (With "It's Beginning To Look A Lot Like Christmas")
5. Martin Mull - Santa Doesn't Cop Out On Dope
6. Jim Croce - It Doesn't Have To Be That Way
7. Liberace - Christmas Medley: White Christmas/Jingle Bells/O Come, All Ye Faithful (Adeste Fideles)/Silent Night, Holy Night
8. Wayne Newton - Jingle Bell Hustle
9. Cheech & Chong - Santa Claus And His Old Lady
10. Glen Campbell - I Believe In Christmas
11. Ricky Segall & The Segalls - All I Want To Ask Santa Claus
12. Donny & Marie - Winter Wonderland
13. Bobby Sherman - Jingle Bell Rock
14. Martin Mull with The Sondra Baskin Glee Club - Santafly
15. Gary Glitter - Another Rock 'N' Roll Christmas
16. Grandpa Walton (Will Geer) - Grandpa's Christmas Wish
EAC Log
EAC extraction logfile from 1. December 2005, 5:29 for CD
Various / Have A Nice Christmas
Used drive : LITE-ON DVDRW SOHW-1633S Adapter: 0 ID: 0
Read mode : Secure with NO C2, accurate stream, disable cache
Read offset correction : 12
Overread into Lead-In and Lead-Out : No
Used output format : Internal WAV Routines
44.100 Hz; 16 Bit; Stereo
Other options :
Fill up missing offset samples with silence : Yes
Delete leading and trailing silent blocks : No
Installed external ASPI interface
Track 1
Filename C:FLACVA - Have A Nice Christmas-Holiday Hits Of The 70's (1994) [FLAC] (Rhino)1 - Bobby Sherman - Yesterday's Christmas.wav
Pre-gap length 0:00:02.32
Peak level 100.0 %
Track quality 100.0 %
Test CRC 610AA1E2
Copy CRC 610AA1E2
Copy OK
Track 2
Filename C:FLACVA - Have A Nice Christmas-Holiday Hits Of The 70's (1994) [FLAC] (Rhino)2 - Melanie - Merry Christmas.wav
Pre-gap length 0:00:02.67
Peak level 92.1 %
Track quality 100.0 %
Test CRC 40D92D4F
Copy CRC 40D92D4F
Copy OK
Track 3
Filename C:FLACVA - Have A Nice Christmas-Holiday Hits Of The 70's (1994) [FLAC] (Rhino)3 - The Jimmy Castor Bunch - The Christmas Song.wav
Pre-gap length 0:00:01.72
Peak level 100.0 %
Track quality 100.0 %
Test CRC D4EA85E6
Copy CRC D4EA85E6
Copy OK
Track 4
Filename C:FLACVA - Have A Nice Christmas-Holiday Hits Of The 70's (1994) [FLAC] (Rhino)4 - The Osmonds - Pine Cones And Holly Berries.wav
Pre-gap length 0:00:01.57
Peak level 100.0 %
Track quality 100.0 %
Test CRC 05AF93FA
Copy CRC 05AF93FA
Copy OK
Track 5
Filename C:FLACVA - Have A Nice Christmas-Holiday Hits Of The 70's (1994) [FLAC] (Rhino)5 - Martin Mull - Santa Doesn't Cop Out On Dope.wav
Pre-gap length 0:00:02.12
Peak level 100.0 %
Track quality 100.0 %
Test CRC 7FB8393C
Copy CRC 7FB8393C
Copy OK
Track 6
Filename C:FLACVA - Have A Nice Christmas-Holiday Hits Of The 70's (1994) [FLAC] (Rhino)6 - Jim Croce - It Doesn't Have To Be That Way.wav
Pre-gap length 0:00:02.67
Peak level 100.0 %
Track quality 100.0 %
Test CRC D510FF6A
Copy CRC D510FF6A
Copy OK
Track 7
Filename C:FLACVA - Have A Nice Christmas-Holiday Hits Of The 70's (1994) [FLAC] (Rhino)7 - Liberace - Christmas Medley.wav
Pre-gap length 0:00:01.47
Peak level 100.0 %
Track quality 99.9 %
Test CRC 20B28917
Copy CRC 20B28917
Copy OK
Track 8
Filename C:FLACVA - Have A Nice Christmas-Holiday Hits Of The 70's (1994) [FLAC] (Rhino)8 - Wayne Newton - Jingle Bell Hustle.wav
Pre-gap length 0:00:01.30
Peak level 100.0 %
Track quality 100.0 %
Test CRC 9204521C
Copy CRC 9204521C
Copy OK
Track 9
Filename C:FLACVA - Have A Nice Christmas-Holiday Hits Of The 70's (1994) [FLAC] (Rhino)9 - Cheech & Chong - Santa Claus And His Old Lady.wav
Pre-gap length 0:00:03.24
Peak level 86.5 %
Track quality 99.9 %
Test CRC 381A8614
Copy CRC 381A8614
Copy OK
Track 10
Filename C:FLACVA - Have A Nice Christmas-Holiday Hits Of The 70's (1994) [FLAC] (Rhino)10 - Glen Campbell - I Believe In Christmas.wav
Pre-gap length 0:00:03.12
Peak level 100.0 %
Track quality 100.0 %
Test CRC 75F90232
Copy CRC 75F90232
Copy OK
Track 11
Filename C:FLACVA - Have A Nice Christmas-Holiday Hits Of The 70's (1994) [FLAC] (Rhino)11 - Ricky Segall & The Segalls - All I Want To Ask Santa Claus.wav
Pre-gap length 0:00:03.63
Peak level 100.0 %
Track quality 100.0 %
Test CRC 491DD363
Copy CRC 491DD363
Copy OK
Track 12
Filename C:FLACVA - Have A Nice Christmas-Holiday Hits Of The 70's (1994) [FLAC] (Rhino)12 - Donny & Marie - Winter Wonderland.wav
Pre-gap length 0:00:02.12
Peak level 100.0 %
Track quality 100.0 %
Test CRC 276C68D6
Copy CRC 276C68D6
Copy OK
Track 13
Filename C:FLACVA - Have A Nice Christmas-Holiday Hits Of The 70's (1994) [FLAC] (Rhino)13 - Bobby Sherman - Jingle Bell Rock.wav
Pre-gap length 0:00:00.13
Peak level 100.0 %
Track quality 100.0 %
Test CRC 3C6F796F
Copy CRC 3C6F796F
Copy OK
Track 14
Filename C:FLACVA - Have A Nice Christmas-Holiday Hits Of The 70's (1994) [FLAC] (Rhino)14 - Martin Mull - Santafly.wav
Pre-gap length 0:00:01.46
Peak level 100.0 %
Track quality 100.0 %
Test CRC 5CA18A18
Copy CRC 5CA18A18
Copy OK
Track 15
Filename C:FLACVA - Have A Nice Christmas-Holiday Hits Of The 70's (1994) [FLAC] (Rhino)15 - Gary Glitter - Another Rock 'n' Roll Christmas.wav
Pre-gap length 0:00:02.54
Peak level 100.0 %
Track quality 100.0 %
Test CRC 50F299E3
Copy CRC 50F299E3
Copy OK
Track 16
Filename C:FLACVA - Have A Nice Christmas-Holiday Hits Of The 70's (1994) [FLAC] (Rhino)16 - Grandpa Walton (Will Geer) - Grandpa's Christmas Wish.wav
Pre-gap length 0:00:01.65
Peak level 100.0 %
Track quality 100.0 %
Test CRC 5E6CBD74
Copy CRC 5E6CBD74
Copy OK
No errors occured
End of status report

Download Now :

 
[related-news] Related News:

{related-news} [/related-news]

ADVERTISING » Full And Free Download
Direct Download Free VA - Have A Nice Christmas: Holiday Hits Of The 70's .zip
« ADVERTISING

VA - Have A Nice Christmas: Holiday Hits Of The 70's Copyright

dlbin periodically updates infomation and download links of VA - Have A Nice Christmas: Holiday Hits Of The 70's .You should confirm all information before relying on it. eBook piracy is theft, VA - Have A Nice Christmas: Holiday Hits Of The 70's download torrent,direct link,prefiles.com,VA - Have A Nice Christmas: Holiday Hits Of The 70's dropbox.com,VA - Have A Nice Christmas: Holiday Hits Of The 70's mediafire.com,VA - Have A Nice Christmas: Holiday Hits Of The 70's rapidgator.net,VA - Have A Nice Christmas: Holiday Hits Of The 70's filefactory.com,VA - Have A Nice Christmas: Holiday Hits Of The 70's uploaded.net,oboom.com at here Please contact hostfile


Write a Comment For"VA - Have A Nice Christmas: Holiday Hits Of The 70's "




Recent searches:
File searchcloudcache.php not found.

Remember Me?
BOOKSMARK US

rss feed

Get newest via RSS reader

feed burner

Mail Daily Letter

Enter your email address:

PUBLICATION ARCHIVE
«    January 2017    »
MonTueWedThuFriSatSun
 1
2345678
9101112131415
16171819202122
23242526272829
3031 

Main/Menu

WE RECOMMEND TO VISIT:

^ Top