Loading...


Loading




Author : Poster | Date : 3-12-2015, 09:57 | Comments : 0 |
|

David Arkenstone - Christmas Lounge (2008)
EAC | FLAC | Tracks (Cue & Log) ~ 347 mb | MP3 320 kbps CBR ~ 149 mb | Scans included | 54 min
Lounge, New Age, Christmas | Label: Green Hill Productions | Rel: 2008

David Arkenstone's Christmas Lounge is a great album for those looking for an alternative to the typical Christmas music fare. It's also perfect for those urban sophisticates and anyone who considers themselves electronic music fans. Christmas Lounge is great background music for a holiday party, that long drive to visit loved ones, or even to help pass the time at work.

David Arkenstone's Christmas Lounge is a great album for those looking for an alternative to the typical Christmas music fare. It's also perfect for those urban sophisticates and anyone who considers themselves electronic music fans. Christmas Lounge is great background music for a holiday party, that long drive to visit loved ones, or even to help pass the time at work.
Tracklist:
01 - Sleigh Ride (4:41)
02 - Deck The Halls (4:21)
03 - Angels We Have Heard On High (5:23)
04 - O Come All Ye Faithful (4:11)
05 - Dance Of The Sugar Plum Fairy (4:26)
06 - We Three Kings (4:28)
07 - Carol Of The Bells (5:41)
08 - Do You Hear What I Hear (4:23)
09 - God Rest Ye Merry, Gentlemen (4:30)
10 - Jingle Bells (4:29)
11 - The First Noel (4:28)
12 - Silent Night (3:54)
EAC log
Exact Audio Copy V1.0 beta 3 from 29. August 2011
EAC extraction logfile from 3. January 2015, 19:15
David Arkenstone / Christmas Lounge
Used drive : Optiarc DVD RW AD-7241S Adapter: 5 ID: 1
Read mode : Secure
Utilize accurate stream : Yes
Defeat audio cache : Yes
Make use of C2 pointers : No
Read offset correction : 48
Overread into Lead-In and Lead-Out : No
Fill up missing offset samples with silence : Yes
Delete leading and trailing silent blocks : No
Null samples used in CRC calculations : Yes
Used interface : Native Win32 interface for Win NT & 2000
Gap handling : Appended to previous track
Used output format : User Defined Encoder
Selected bitrate : 1024 kBit/s
Quality : High
Add ID3 tag : No
Command line compressor : C:Program FilesEAC1.3Flacflac.exe
Additional command line options : -8 -V -T "ARTIST=%artist%" -T "TITLE=%title%" -T "ALBUM=%albumtitle%" -T "DATE=%year%" -T "TRACKNUMBER=%tracknr%" -T "TOTALTRACKS=%numtracks%" -T "GENRE=%genre%" -T "ALBUMARTIST=%albumartist%" -T "ALBUM ARTIST=%albumartist%" -T "COMMENT=EAC Secure Mode, Test & Copy, AccurateRip, FLAC -8" %source%
TOC of the extracted CD
Track | Start | Length | Start sector | End sector
---------------------------------------------------------
1 | 0:00.00 | 4:40.60 | 0 | 21059
2 | 4:40.60 | 4:20.55 | 21060 | 40614
3 | 9:01.40 | 5:23.14 | 40615 | 64853
4 | 14:24.54 | 4:10.50 | 64854 | 83653
5 | 18:35.29 | 4:25.51 | 83654 | 103579
6 | 23:01.05 | 4:28.19 | 103580 | 123698
7 | 27:29.24 | 5:40.62 | 123699 | 149260
8 | 33:10.11 | 4:22.71 | 149261 | 168981
9 | 37:33.07 | 4:30.13 | 168982 | 189244
10 | 42:03.20 | 4:29.22 | 189245 | 209441
11 | 46:32.42 | 4:28.11 | 209442 | 229552
12 | 51:00.53 | 3:54.30 | 229553 | 247132
Track 1
Filename C:EACcd1 - Sleigh Ride.wav
Pre-gap length 0:00:02.00
Peak level 99.4 %
Extraction speed 2.3 X
Track quality 100.0 %
Test CRC 410FC4EC
Copy CRC 410FC4EC
Accurately ripped (confidence 3) [F17FE12E] (AR v2)
Copy OK
Track 2
Filename C:EACcd2 - Deck The Halls.wav
Pre-gap length 0:00:03.00
Peak level 98.8 %
Extraction speed 2.6 X
Track quality 100.0 %
Test CRC FCBFA7CA
Copy CRC FCBFA7CA
Accurately ripped (confidence 3) [C248B7AA] (AR v2)
Copy OK
Track 3
Filename C:EACcd3 - Angels We Have Heard On High.wav
Pre-gap length 0:00:03.00
Peak level 98.8 %
Extraction speed 3.0 X
Track quality 100.0 %
Test CRC FD6093F4
Copy CRC FD6093F4
Accurately ripped (confidence 3) [FF7E2B23] (AR v2)
Copy OK
Track 4
Filename C:EACcd4 - O Come All Ye Faithful.wav
Pre-gap length 0:00:03.00
Peak level 98.8 %
Extraction speed 2.8 X
Track quality 99.9 %
Test CRC 01ACEF20
Copy CRC 01ACEF20
Accurately ripped (confidence 3) [3DF953BB] (AR v2)
Copy OK
Track 5
Filename C:EACcd5 - Dance Of The Sugar Plum Fairy.wav
Pre-gap length 0:00:03.00
Peak level 98.8 %
Extraction speed 3.4 X
Track quality 100.0 %
Test CRC 44710365
Copy CRC 44710365
Accurately ripped (confidence 3) [0F1FD520] (AR v2)
Copy OK
Track 6
Filename C:EACcd6 - We Three Kings.wav
Pre-gap length 0:00:03.00
Peak level 98.8 %
Extraction speed 3.2 X
Track quality 99.9 %
Test CRC E303598C
Copy CRC E303598C
Accurately ripped (confidence 3) [4A7D8225] (AR v2)
Copy OK
Track 7
Filename C:EACcd7 - Carol Of The Bells.wav
Pre-gap length 0:00:03.00
Peak level 98.8 %
Extraction speed 3.8 X
Track quality 100.0 %
Test CRC D98366B4
Copy CRC D98366B4
Accurately ripped (confidence 3) [B7249606] (AR v2)
Copy OK
Track 8
Filename C:EACcd8 - Do You Hear What I Hear.wav
Pre-gap length 0:00:03.00
Peak level 98.8 %
Extraction speed 3.5 X
Track quality 99.9 %
Test CRC 2B42FCDD
Copy CRC 2B42FCDD
Accurately ripped (confidence 3) [1031960C] (AR v2)
Copy OK
Track 9
Filename C:EACcd9 - God Rest Ye Merry, Gentlemen.wav
Pre-gap length 0:00:03.00
Peak level 98.8 %
Extraction speed 4.1 X
Track quality 100.0 %
Test CRC 740F3613
Copy CRC 740F3613
Accurately ripped (confidence 3) [1E9C10DC] (AR v2)
Copy OK
Track 10
Filename C:EACcd10 - Jingle Bells.wav
Pre-gap length 0:00:03.00
Peak level 98.8 %
Extraction speed 4.3 X
Track quality 100.0 %
Test CRC D4B5EEAB
Copy CRC D4B5EEAB
Accurately ripped (confidence 3) [ABE6FB9D] (AR v2)
Copy OK
Track 11
Filename C:EACcd11 - The First Noel.wav
Pre-gap length 0:00:03.00
Peak level 98.8 %
Extraction speed 4.4 X
Track quality 100.0 %
Test CRC B1DF2C98
Copy CRC B1DF2C98
Accurately ripped (confidence 3) [BE2BCBBB] (AR v2)
Copy OK
Track 12
Filename C:EACcd12 - Silent Night.wav
Pre-gap length 0:00:03.00
Peak level 98.8 %
Extraction speed 4.0 X
Track quality 99.9 %
Test CRC BB9C06D2
Copy CRC BB9C06D2
Accurately ripped (confidence 3) [CEC1843D] (AR v2)
Copy OK
All tracks accurately ripped
No errors occurred
End of status report
---- CUETools DB Plugin V2.1.3
[CTDB TOCID: h4ayMcD435p9CTQK_BVu4_8uDp0-] found, Submit result: h4ayMcD435p9CTQK_BVu4_8uDp0- has been confirmed
[def74007] (4/4) Accurately ripped
==== Log checksum 3F0F6F59C38D43AC314B0DDADE73965B089945B759F0690CC02590F512328D31 ====

All thanks to the original uploader: Aurosus

Download Now :

 
[related-news] Related News:

{related-news} [/related-news]

ADVERTISING » Full And Free Download
Direct Download Free David Arkenstone - Christmas Lounge .zip
« ADVERTISING

David Arkenstone - Christmas Lounge Copyright

dlbin periodically updates infomation and download links of David Arkenstone - Christmas Lounge .You should confirm all information before relying on it. eBook piracy is theft, David Arkenstone - Christmas Lounge download torrent,direct link,prefiles.com,David Arkenstone - Christmas Lounge dropbox.com,David Arkenstone - Christmas Lounge mediafire.com,David Arkenstone - Christmas Lounge rapidgator.net,David Arkenstone - Christmas Lounge filefactory.com,David Arkenstone - Christmas Lounge uploaded.net,oboom.com at here Please contact hostfile


Write a Comment For"David Arkenstone - Christmas Lounge "




Recent searches:
File searchcloudcache.php not found.

Remember Me?
BOOKSMARK US

rss feed

Get newest via RSS reader

feed burner

Mail Daily Letter

Enter your email address:

PUBLICATION ARCHIVE
«    February 2017    »
MonTueWedThuFriSatSun
 12345
6789101112
13141516171819
20212223242526
2728 

Main/Menu

WE RECOMMEND TO VISIT:

^ Top