Loading...


Loading




Author : Poster | Date : 3-12-2015, 11:00 | Comments : 0 |
|

Hector Zazou, Barbara Eramo & Stefano Saletti - Oriental Night Fever (2010) {Materiali Sonori}
EAC rip (secure mode) | FLAC (tracks)+CUE+LOG -> 337 Mb | MP3 @320 -> 126 Mb
Full Artwork @ 600 dpi (png) -> 57 Mb | 5% repair rar
© 2010 Materiali Sonori | MASO CD 90151
Pop / Experimental / Dance Pop / Indie Pop / Folk Disco / World / Electronica

Here's the idea, Hector said. He had the Disco Inferno CD in his hand, the one we had all danced to at New Year's Eve, reliving the 70's. ''With percussion, oud and bouzouki we'll play disco as if it were world music''. So we went down to the studio and arranged I Feel Love by Donna Summer, just like that, as if we had never listened to anything else. This was Hector's genius, his method, his study of sound, which began with some small detail, from the rustle of a leaf, from a drum tapped on its edge instead of the skin. Then he left us alone to finish the project. And dance to disco.


Here's the idea, Hector said. He had the Disco Inferno CD in his hand, the one we had all danced to at New Year's Eve, reliving the 70's. ''With percussion, oud and bouzouki we'll play disco as if it were world music''. So we went down to the studio and arranged I Feel Love by Donna Summer, just like that, as if we had never listened to anything else. This was Hector's genius, his method, his study of sound, which began with some small detail, from the rustle of a leaf, from a drum tapped on its edge instead of the skin. Then he left us alone to finish the project. And dance to disco.

Personnel:
Hector Zazou - Electronics
Stefano Saletti - Bodhran, Bouzouki, Cajon, Drums (Steel), Electronics, Guitar (Acoustic & Electric), Hand Drums, Oud, Percussion, Mandol, Teponaztli
Barbara Eramo - Kalimba, Percussion, Vocals
and others...
tracklist:
01 - I Feel Love
02 - Y.M.C.A.
03 - Oriental Night
04 - Stayin' Alive
05 - Ring My Bell
06 - Night Fever
07 - Disco Inferno
08 - Heart of Glass
09 - You Make Me Feel (Mighty Real)
10 - I Want Your Love
11 - I Will Survive
EAC log
Exact Audio Copy V0.99 prebeta 4 from 23. January 2008
EAC extraction logfile from 15. March 2010, 17:00
Hector Zazou Barbara Eramo Stefano Saletti / Oriental Night Fever
Used drive : HL-DT-STDVD-ROM GDR8161B Adapter: 0 ID: 1
Read mode : Secure
Utilize accurate stream : Yes
Defeat audio cache : Yes
Make use of C2 pointers : No
Read offset correction : 102
Overread into Lead-In and Lead-Out : No
Fill up missing offset samples with silence : Yes
Delete leading and trailing silent blocks : No
Null samples used in CRC calculations : Yes
Used interface : Native Win32 interface for Win NT & 2000
Gap handling : Appended to previous track
Used output format : User Defined Encoder
Selected bitrate : 768 kBit/s
Quality : High
Add ID3 tag : No
Command line compressor : C:Program FilesExact Audio CopyFLACFLAC.EXE
Additional command line options : -8 -V -T "ARTIST=%a" -T "TITLE=%t" -T "ALBUM=%g" -T "DATE=%y" -T "TRACKNUMBER=%n" -T "GENRE=%m" -T "COMMENT=EAC FLAC -8" %s
TOC of the extracted CD
Track | Start | Length | Start sector | End sector
---------------------------------------------------------
1 | 0:00.00 | 5:37.60 | 0 | 25334
2 | 5:37.60 | 4:35.37 | 25335 | 45996
3 | 10:13.22 | 1:23.41 | 45997 | 52262
4 | 11:36.63 | 4:35.08 | 52263 | 72895
5 | 16:11.71 | 4:08.69 | 72896 | 91564
6 | 20:20.65 | 4:30.06 | 91565 | 111820
7 | 24:50.71 | 5:04.22 | 111821 | 134642
8 | 29:55.18 | 4:38.19 | 134643 | 155511
9 | 34:33.37 | 3:58.41 | 155512 | 173402
10 | 38:32.03 | 6:17.59 | 173403 | 201736
11 | 44:49.62 | 7:29.51 | 201737 | 235462
Track 1
Filename D:STempHector Zazou, Barbara Eramo & Stefano Saletti - Oriental Night Fever1 - I Feel Love.wav
Pre-gap length 0:00:02.00
Peak level 99.6 %
Track quality 100.0 %
Test CRC EC48DF2F
Copy CRC EC48DF2F
Track not present in AccurateRip database
Copy OK
Track 2
Filename D:STempHector Zazou, Barbara Eramo & Stefano Saletti - Oriental Night Fever2 - Y.M.C.A..wav
Peak level 100.0 %
Track quality 100.0 %
Test CRC D30E73E2
Copy CRC D30E73E2
Track not present in AccurateRip database
Copy OK
Track 3
Filename D:STempHector Zazou, Barbara Eramo & Stefano Saletti - Oriental Night Fever3 - Oriental Night.wav
Peak level 88.5 %
Track quality 100.0 %
Test CRC 76E9DD1C
Copy CRC 76E9DD1C
Track not present in AccurateRip database
Copy OK
Track 4
Filename D:STempHector Zazou, Barbara Eramo & Stefano Saletti - Oriental Night Fever4 - Stayin' Alive.wav
Peak level 99.7 %
Track quality 100.0 %
Test CRC A2D3618F
Copy CRC A2D3618F
Track not present in AccurateRip database
Copy OK
Track 5
Filename D:STempHector Zazou, Barbara Eramo & Stefano Saletti - Oriental Night Fever5 - Ring My Bell.wav
Peak level 99.8 %
Track quality 100.0 %
Test CRC BC76AD19
Copy CRC BC76AD19
Track not present in AccurateRip database
Copy OK
Track 6
Filename D:STempHector Zazou, Barbara Eramo & Stefano Saletti - Oriental Night Fever6 - Night Fever.wav
Peak level 99.9 %
Track quality 100.0 %
Test CRC 58A6BE85
Copy CRC 58A6BE85
Track not present in AccurateRip database
Copy OK
Track 7
Filename D:STempHector Zazou, Barbara Eramo & Stefano Saletti - Oriental Night Fever7 - Disco Inferno.wav
Peak level 99.6 %
Track quality 100.0 %
Test CRC E0C68C01
Copy CRC E0C68C01
Track not present in AccurateRip database
Copy OK
Track 8
Filename D:STempHector Zazou, Barbara Eramo & Stefano Saletti - Oriental Night Fever8 - Heart of Glass.wav
Peak level 99.8 %
Track quality 99.9 %
Test CRC 72427875
Copy CRC 72427875
Track not present in AccurateRip database
Copy OK
Track 9
Filename D:STempHector Zazou, Barbara Eramo & Stefano Saletti - Oriental Night Fever9 - You Make Me Feel (Mighty Real).wav
Peak level 99.6 %
Track quality 100.0 %
Test CRC 42CB8E1A
Copy CRC 42CB8E1A
Track not present in AccurateRip database
Copy OK
Track 10
Filename D:STempHector Zazou, Barbara Eramo & Stefano Saletti - Oriental Night Fever10 - I Want Your Love.wav
Peak level 100.0 %
Track quality 100.0 %
Test CRC 32713CFD
Copy CRC 32713CFD
Track not present in AccurateRip database
Copy OK
Track 11
Filename D:STempHector Zazou, Barbara Eramo & Stefano Saletti - Oriental Night Fever11 - I Will Survive.wav
Peak level 99.8 %
Track quality 100.0 %
Test CRC AE545273
Copy CRC AE545273
Track not present in AccurateRip database
Copy OK
None of the tracks are present in the AccurateRip database
No errors occurred
End of status report

All thanks goes to the original releaser!
More Hector Zazou:
Hector Zazou - L'Absence (2003) {Santeria SAN 035}

NEXT -> More Hector Zazou...

Download Now :

 
[related-news] Related News:

{related-news} [/related-news]

ADVERTISING » Full And Free Download
Direct Download Free Hector Zazou, Barbara Eramo & Stefano Saletti - Oriental Night Fever .zip
« ADVERTISING

Hector Zazou, Barbara Eramo & Stefano Saletti - Oriental Night Fever Copyright

dlbin periodically updates infomation and download links of Hector Zazou, Barbara Eramo & Stefano Saletti - Oriental Night Fever .You should confirm all information before relying on it. eBook piracy is theft, Hector Zazou, Barbara Eramo & Stefano Saletti - Oriental Night Fever download torrent,direct link,prefiles.com,Hector Zazou, Barbara Eramo & Stefano Saletti - Oriental Night Fever dropbox.com,Hector Zazou, Barbara Eramo & Stefano Saletti - Oriental Night Fever mediafire.com,Hector Zazou, Barbara Eramo & Stefano Saletti - Oriental Night Fever rapidgator.net,Hector Zazou, Barbara Eramo & Stefano Saletti - Oriental Night Fever filefactory.com,Hector Zazou, Barbara Eramo & Stefano Saletti - Oriental Night Fever uploaded.net,oboom.com at here Please contact hostfile


Write a Comment For"Hector Zazou, Barbara Eramo & Stefano Saletti - Oriental Night Fever "




Recent searches:
File searchcloudcache.php not found.

Remember Me?
BOOKSMARK US

rss feed

Get newest via RSS reader

feed burner

Mail Daily Letter

Enter your email address:

PUBLICATION ARCHIVE
«    February 2017    »
MonTueWedThuFriSatSun
 12345
6789101112
13141516171819
20212223242526
2728 

Main/Menu

WE RECOMMEND TO VISIT:

^ Top