Loading...


Loading




Author : Poster | Date : 3-12-2015, 12:00 | Comments : 0 |
|

Def Leppard - Pyromania: Promo Box (2008) (SHM-CD)
Rock | 5cd | EAC Rip | Flac + Cue + Log | covers
Universal/Vertigo UICY-93450~54 | rel: 2008 | 2120Mb

In many ways, Def Leppard were the definitive hard rock band of the '80s. There were many bands that rocked harder (and were more dangerous) than the Sheffield-based quintet, but few others captured the spirit of the times quite as well. Emerging in the late '70s as part of the New Wave of British Heavy Metal, Def Leppard actually owed more to the glam rock and metal of the early '70s, as their sound was equal parts T. Rex, Mott the Hoople, Queen, and Led Zeppelin.

In many ways, Def Leppard were the definitive hard rock band of the '80s. There were many bands that rocked harder (and were more dangerous) than the Sheffield-based quintet, but few others captured the spirit of the times quite as well. Emerging in the late '70s as part of the New Wave of British Heavy Metal, Def Leppard actually owed more to the glam rock and metal of the early '70s, as their sound was equal parts T. Rex, Mott the Hoople, Queen, and Led Zeppelin. By toning down their heavy riffs and emphasizing melody, Def Leppard were poised for crossover success by the time of 1983's Pyromania, and skillfully used the fledgling MTV network to their advantage. The musicians were already blessed with photogenic good looks, but they also crafted a series of innovative, exciting videos that made them into stars. They intended a quick follow-up to Pyromania, but were derailed when their drummer lost an arm in a car accident, the first of many problems that plagued the group's career. They managed to pull through such tragedies, and even expanded their large audience with 1987's blockbuster Hysteria. ~Allmusic
On Through the Night, Def Leppard's debut album, established the band as one of the leading lights of the New Wave of British Heavy Metal. While possessing the tight, controlled attack of comrades Judas Priest and Iron Maiden, Def Leppard was uninterested in the fantastic, menacing, and sometimes gothic themes of those bands; instead, On Through the Night is a collection of working-class hard rock anthems informed by the big, glittering hooks of glam rock. It may lack the detailed production and more pop-oriented songwriting of later efforts, but it's also arguably their heaviest album, and some Leppard fans prefer this sound. ~Allmusic
Track listing
01. Rock Brigade (3:10)
02. Hello America (3:28)
03. Sorrow Is A Woman (3:55)
04. It Could Be You (2:34)
05. Satellite (4:28)
06. When The Walls Came Tumbling Down (4:45)
07. Wasted (3:45)
08. Rocks Off (3:44)
09. It Don't Matter (3:21)
10. Answer To The Master (3:13)
11. Overture (7:46)
~ (44:10)
eac log:

EAC extraction logfile from 9. May 2008, 19:55 for CD
Def Leppard / On Through The Night {Japan UICY-93450}
Used drive : ASUS DRW-2014L1 Adapter: 0 ID: 3
Read mode : Secure with NO C2, accurate stream, disable cache
Read offset correction : 6
Overread into Lead-In and Lead-Out : No
Used output format : C:Program FilesFLACflac.exe (User Defined Encoder)
320 kBit/s
Additional command line options : -V -8 -T "artist=%a" -T "title=%t" -T "album=%g" -T "date=%y" -T "tracknumber=%n" -T "genre=%m" %s
Other options :
Fill up missing offset samples with silence : Yes
Delete leading and trailing silent blocks : No
Installed external ASPI interface
Track 1
Filename D:EAC FLAC FILES1 - Rock Brigade.wav
Pre-gap length 0:00:02.00
Peak level 100.0 %
Track quality 100.0 %
Test CRC 6E52E57C
Copy CRC 6E52E57C
Copy OK
Track 2
Filename D:EAC FLAC FILES2 - Hello America.wav
Peak level 99.9 %
Track quality 100.0 %
Test CRC 60E55A44
Copy CRC 60E55A44
Copy OK
Track 3
Filename D:EAC FLAC FILES3 - Sorrow Is A Woman.wav
Pre-gap length 0:03:28.04
Peak level 100.0 %
Track quality 100.0 %
Test CRC 2ACE6116
Copy CRC 2ACE6116
Copy OK
Track 4
Filename D:EAC FLAC FILES4 - It Could Be You.wav
Pre-gap length 0:07:23.26
Peak level 96.4 %
Track quality 100.0 %
Test CRC 343D6B51
Copy CRC 343D6B51
Copy OK
Track 5
Filename D:EAC FLAC FILES5 - Satellite.wav
Pre-gap length 0:09:56.84
Peak level 100.0 %
Track quality 100.0 %
Test CRC 4E7DCA1F
Copy CRC 4E7DCA1F
Copy OK
Track 6
Filename D:EAC FLAC FILES6 - When The Walls Came Tumbling Down.wav
Pre-gap length 0:14:25.00
Peak level 100.0 %
Track quality 100.0 %
Test CRC E0795BC1
Copy CRC E0795BC1
Copy OK
Track 7
Filename D:EAC FLAC FILES7 - Wasted.wav
Pre-gap length 0:19:10.10
Peak level 100.0 %
Track quality 100.0 %
Test CRC 709B253B
Copy CRC 709B253B
Copy OK
Track 8
Filename D:EAC FLAC FILES8 - Rocks Off.wav
Pre-gap length 0:22:55.40
Peak level 100.0 %
Track quality 100.0 %
Test CRC 02491F6B
Copy CRC 02491F6B
Copy OK
Track 9
Filename D:EAC FLAC FILES9 - It Don't Matter.wav
Pre-gap length 0:26:39.60
Peak level 94.9 %
Track quality 100.0 %
Test CRC E3399CAA
Copy CRC E3399CAA
Copy OK
Track 10
Filename D:EAC FLAC FILES10 - Answer To The Master.wav
Pre-gap length 0:30:01.04
Peak level 94.8 %
Track quality 100.0 %
Test CRC A8C745E0
Copy CRC A8C745E0
Copy OK
Track 11
Filename D:EAC FLAC FILES11 - Overture.wav
Pre-gap length 0:33:14.17
Peak level 95.0 %
Track quality 100.0 %
Test CRC FACD97DF
Copy CRC FACD97DF
Copy OK
No errors occured
End of status report

cuetools report:

[CUETools log; Date: 2015.11.30. 22:32:08; Version: 2.1.5]
[CTDB TOCID: xl2QadGQfqLf7sVqMg_OaYEoNwU-] found.
Track | CTDB Status
1 | (6/6) Accurately ripped
2 | (6/6) Accurately ripped
3 | (6/6) Accurately ripped
4 | (6/6) Accurately ripped
5 | (6/6) Accurately ripped
6 | (6/6) Accurately ripped
7 | (6/6) Accurately ripped
8 | (6/6) Accurately ripped
9 | (6/6) Accurately ripped
10 | (6/6) Accurately ripped
11 | (6/6) Accurately ripped
[AccurateRip ID: 0010afd4-009299bf-a60a590b] found.
Track [ CRC | V2 ] Status
01 [dfaac5db|301a4992] (06+12/25) Accurately ripped
02 [59a0d528|979cd26a] (06+12/25) Accurately ripped
03 [97689478|192c0281] (06+12/25) Accurately ripped
04 [cde40baf|429c9cb5] (06+12/25) Accurately ripped
05 [3fc970de|543ce8f1] (06+12/25) Accurately ripped
06 [e3d33313|30e3929a] (06+12/25) Accurately ripped
07 [bc96d6c2|1b42503e] (06+12/25) Accurately ripped
08 [ebfcf203|4312e681] (06+12/25) Accurately ripped
09 [3bafd402|711ea90c] (06+12/25) Accurately ripped
10 [9c689b47|1d117021] (06+12/25) Accurately ripped
11 [27d6d42b|ef7dfcad] (06+12/25) Accurately ripped
Offsetted by -1143:
01 [9cfea348] (00/25) No match (V2 was not tested)
02 [71482c5b] (00/25) No match (V2 was not tested)
03 [e7741b5c] (00/25) No match (V2 was not tested)
04 [b5c44635] (00/25) No match (V2 was not tested)
05 [c7a811c5] (00/25) No match (V2 was not tested)
06 [8bc352fa] (00/25) No match (V2 was not tested)
07 [6712d477] (00/25) No match (V2 was not tested)
08 [63788ad6] (00/25) No match (V2 was not tested)
09 [456a962b] (00/25) No match (V2 was not tested)
10 [4a5b147c] (00/25) No match (V2 was not tested)
11 [d81b2c04] (00/25) No match (V2 was not tested)
Offsetted by 6:
01 [2b5f60ab] (00/25) No match (V2 was not tested)
02 [d3880078] (00/25) No match (V2 was not tested)
03 [cf6de510] (00/25) No match (V2 was not tested)
04 [dd78b4b3] (00/25) No match (V2 was not tested)
05 [c77d43a1] (00/25) No match (V2 was not tested)
06 [887b9379] (00/25) No match (V2 was not tested)
07 [27fa8712] (00/25) No match (V2 was not tested)
08 [c3dd1e32] (00/25) No match (V2 was not tested)
09 [5f934aaf] (00/25) No match (V2 was not tested)
10 [1d3b3457] (00/25) No match (V2 was not tested)
11 [3a3cca5c] (00/25) No match (V2 was not tested)
Track Peak [ CRC32 ] [W/O NULL] [ LOG ]
-- 100,0 [123B7F08] [C429FE65]
01 100,0 [6E52E57C] [3988BDA1] CRC32
02 99,9 [60E55A44] [0A2F72DF] CRC32
03 100,0 [2ACE6116] [E1D8D7E7] CRC32
04 96,4 [343D6B51] [364C469D] CRC32
05 100,0 [4E7DCA1F] [5598319E] CRC32
06 100,0 [E0795BC1] [6958DBE0] CRC32
07 100,0 [709B253B] [7846F045] CRC32
08 100,0 [02491F6B] [39EFACBD] CRC32
09 94,9 [E3399CAA] [BC81F953] CRC32
10 94,8 [A8C745E0] [4B8ABB2A] CRC32
11 95,0 [FACD97DF] [93EEFA1C] CRC32

Def Leppard's second album, High 'N' Dry, continues in the vein of the anthemic, working-class hard rock of their debut. While still opting for a controlled musical attack and melodies as big-sounding and stadium-ready as possible, the band opens up its arrangements a bit more on High 'N' Dry, letting the songs breathe and groove while the rhythm section and guitar riffs play off one another. MTV helped break the album in the U.S. with its heavy rotation of the video for the unabashedly dramatic rock ballad "Bringin' on the Heartbreak." ~Allmusic
Track listing
01. Let It Go (4:44)
02. Another Hit And Run (4:59)
03. High 'n' Dry (Saturday Night) (3:27)
04. Bringin' On The Heartbreak (4:34)
05. Switch (3:03)
06. You Got Me Runnin' (4:23)
07. Lady Strange (4:39)
08. On Through The Night (5:06)
09. Mirror, Mirror (Look Into My Eyes) (4:08)
10. No No No (3:13)
11. Bringin' On The Hearbreak (Remix) (4:34)
12. Me & My Wine (Remix) (3:41)
~ (50:31)
eac log:

EAC extraction logfile from 10. May 2008, 13:46 for CD
Def Leppard / High 'n' Dry {Japan UICY-93451}
Used drive : ASUS DRW-2014L1 Adapter: 0 ID: 3
Read mode : Secure with NO C2, accurate stream, disable cache
Read offset correction : 6
Overread into Lead-In and Lead-Out : No
Used output format : C:Program FilesFLACflac.exe (User Defined Encoder)
320 kBit/s
Additional command line options : -V -8 -T "artist=%a" -T "title=%t" -T "album=%g" -T "date=%y" -T "tracknumber=%n" -T "genre=%m" %s
Other options :
Fill up missing offset samples with silence : Yes
Delete leading and trailing silent blocks : No
Installed external ASPI interface
Track 1
Filename D:EAC FLAC FILES1 - Let It Go.wav
Pre-gap length 0:00:02.00
Peak level 96.7 %
Track quality 100.0 %
Test CRC 7F237F49
Copy CRC 7F237F49
Copy OK
Track 2
Filename D:EAC FLAC FILES2 - Another Hit And Run.wav
Peak level 86.0 %
Track quality 100.0 %
Test CRC 8A50EDBB
Copy CRC 8A50EDBB
Copy OK
Track 3
Filename D:EAC FLAC FILES3 - High 'n' Dry (Saturday Night).wav
Peak level 92.1 %
Track quality 100.0 %
Test CRC C9AEEB80
Copy CRC C9AEEB80
Copy OK
Track 4
Filename D:EAC FLAC FILES4 - Bringin' On The Heartbreak.wav
Peak level 100.0 %
Track quality 100.0 %
Test CRC 3918AB4D
Copy CRC 3918AB4D
Copy OK
Track 5
Filename D:EAC FLAC FILES5 - Switch.wav
Peak level 98.5 %
Track quality 100.0 %
Test CRC 16A61AC6
Copy CRC 16A61AC6
Copy OK
Track 6
Filename D:EAC FLAC FILES6 - You Got Me Runnin'.wav
Peak level 100.0 %
Track quality 100.0 %
Test CRC 529325B9
Copy CRC 529325B9
Copy OK
Track 7
Filename D:EAC FLAC FILES7 - Lady Strange.wav
Peak level 100.0 %
Track quality 100.0 %
Test CRC 5E9D6311
Copy CRC 5E9D6311
Copy OK
Track 8
Filename D:EAC FLAC FILES8 - On Through The Night.wav
Peak level 100.0 %
Track quality 100.0 %
Test CRC E9BC0B48
Copy CRC E9BC0B48
Copy OK
Track 9
Filename D:EAC FLAC FILES9 - Mirror, Mirror (Look Into My Eyes).wav
Peak level 100.0 %
Track quality 100.0 %
Test CRC 5EFAD416
Copy CRC 5EFAD416
Copy OK
Track 10
Filename D:EAC FLAC FILES10 - No No No.wav
Peak level 100.0 %
Track quality 99.9 %
Test CRC 58D4D909
Copy CRC 58D4D909
Copy OK
Track 11
Filename D:EAC FLAC FILES11 - Bringin' On The Hearbreak (Remix).wav
Peak level 100.0 %
Track quality 100.0 %
Test CRC 051CDC38
Copy CRC 051CDC38
Copy OK
Track 12
Filename D:EAC FLAC FILES12 - Me & My Wine (Remix).wav
Peak level 99.9 %
Track quality 100.0 %
Test CRC 5CF47A56
Copy CRC 5CF47A56
Copy OK
No errors occured
End of status report

cuetools report:

[CUETools log; Date: 2015.11.30. 22:04:23; Version: 2.1.5]
[CTDB TOCID: YBBuZopC6CcTiCSl4t28cYVhFag-] found.
Track | CTDB Status
1 | (13/13) Accurately ripped
2 | (13/13) Accurately ripped
3 | (13/13) Accurately ripped
4 | (13/13) Accurately ripped
5 | (13/13) Accurately ripped
6 | (12/13) Accurately ripped
7 | (13/13) Accurately ripped
8 | (12/13) Accurately ripped
9 | (13/13) Accurately ripped
10 | (13/13) Accurately ripped
11 | (13/13) Accurately ripped
12 | (13/13) Accurately ripped
[AccurateRip ID: 0016f8da-00d55098-a90bd60c] found.
Track [ CRC | V2 ] Status
01 [9308ae81|9bb97d5d] (04+10/20) Accurately ripped
02 [3753072e|3abba415] (04+10/20) Accurately ripped
03 [fd328daf|b89fe9b1] (04+10/20) Accurately ripped
04 [95c6683e|ee9dcd35] (04+10/20) Accurately ripped
05 [5361beb3|8323af8e] (04+10/20) Accurately ripped
06 [3c4b9af1|71194bfc] (04+10/18) Accurately ripped
07 [f531d402|35860ede] (04+10/20) Accurately ripped
08 [03f8ef80|6ac3dc90] (04+10/18) Accurately ripped
09 [4a9a868a|9eaf6c9e] (04+10/19) Accurately ripped
10 [8778cab6|a4ae706c] (04+10/19) Accurately ripped
11 [38719d77|2836a217] (04+10/19) Accurately ripped
12 [d77c01b1|905b5e5f] (04+10/19) Accurately ripped
Offsetted by -360:
01 [7692231f] (00/20) No match (V2 was not tested)
02 [f03ad829] (00/20) No match (V2 was not tested)
03 [50f6bb68] (00/20) No match (V2 was not tested)
04 [d84118c4] (00/20) No match (V2 was not tested)
05 [c8926ec7] (00/20) No match (V2 was not tested)
06 [7f1d8c36] (00/18) No match (V2 was not tested)
07 [302a57b2] (00/20) No match (V2 was not tested)
08 [1493176d] (00/18) No match (V2 was not tested)
09 [743318fd] (00/19) No match (V2 was not tested)
10 [e714f4a6] (00/19) No match (V2 was not tested)
11 [e01b2409] (00/19) No match (V2 was not tested)
12 [92f11796] (00/19) No match (V2 was not tested)
Track Peak [ CRC32 ] [W/O NULL] [ LOG ]
-- 100,0 [5CF5AC42] [75B3FA53]
01 96,7 [7F237F49] [AF160ECA] CRC32
02 86,0 [8A50EDBB] [A1749CCB] CRC32
03 92,1 [C9AEEB80] [E4735D6F] CRC32
04 100,0 [3918AB4D] [AB6BC34A] CRC32
05 98,5 [16A61AC6] [E486FA50] CRC32
06 100,0 [529325B9] [3D146A14] CRC32
07 100,0 [5E9D6311] [B6DC241B] CRC32
08 100,0 [E9BC0B48] [8E5D25C5] CRC32
09 100,0 [5EFAD416] [C761388D] CRC32
10 100,0 [58D4D909] [FEE80838] CRC32
11 100,0 [051CDC38] [2846AE9B] CRC32
12 99,9 [5CF47A56] [92B96FB7] CRC32

While Def Leppard had obviously wanted to write big-sounding anthems on their previous records, Pyromania was where the band's vision coalesced and gelled into something more. More than ever before, the band's songs on Pyromania are driven by catchy, shiny melodic hooks instead of heavy guitar riffs, although the latter do pop up once in a while. But it wasn't just this newly intensified focus on melody and consistent songwriting (and heavy MTV exposure) that made Pyromania a massive success -- and the catalyst for the '80s pop-metal movement. Robert John "Mutt" Lange's buffed-to-a-sheen production -- polished drum and guitar sounds, multi-tracked layers of vocal harmonies, a general sanding of any and all musical rough edges, and a perfectionistic attention to detail -- set the style for much of the melodic hard rock that followed. It wasn't a raw or spontaneous sound, but the performances were still energetic and committed. Leppard's quest for huge, transcendent hard rock perfection on Pyromania was surprisingly successful; their reach never exceeded their grasp, which makes the album an enduring (and massively influential) classic. ~Allmusic
Track listing
01. Rock Rock (Till You Drop) (3:55)
02. Photograph (4:17)
03. Stagefright (3:36)
04. Too Late For Love (4:27)
05. Die Hard The Hunter (6:16)
06. Foolin' (4:34)
07. Rock Of Ages (4:08)
08. Comin' Under Fire (4:14)
09. Action! Not Words (3:49)
10. Billy's Got A Gun (5:57)
~ (45:13)
eac log:

EAC extraction logfile from 10. May 2008, 14:57 for CD
Def Leppard / Pyromania {Japan UICY-93452}
Used drive : ASUS DRW-2014L1 Adapter: 0 ID: 3
Read mode : Secure with NO C2, accurate stream, disable cache
Read offset correction : 6
Overread into Lead-In and Lead-Out : No
Used output format : C:Program FilesFLACflac.exe (User Defined Encoder)
320 kBit/s
Additional command line options : -V -8 -T "artist=%a" -T "title=%t" -T "album=%g" -T "date=%y" -T "tracknumber=%n" -T "genre=%m" %s
Other options :
Fill up missing offset samples with silence : Yes
Delete leading and trailing silent blocks : No
Installed external ASPI interface
Track 1
Filename D:EAC FLAC FILES1 - Rock Rock (Till You Drop).wav
Pre-gap length 0:00:02.00
Peak level 97.8 %
Track quality 100.0 %
Test CRC 25A89E57
Copy CRC 25A89E57
Copy OK
Track 2
Filename D:EAC FLAC FILES2 - Photograph.wav
Peak level 95.5 %
Track quality 100.0 %
Test CRC CCC91736
Copy CRC CCC91736
Copy OK
Track 3
Filename D:EAC FLAC FILES3 - Stagefright.wav
Pre-gap length 0:04:16.53
Peak level 88.0 %
Track quality 100.0 %
Test CRC 3C063CD0
Copy CRC 3C063CD0
Copy OK
Track 4
Filename D:EAC FLAC FILES4 - Too Late For Love.wav
Pre-gap length 0:07:52.80
Peak level 98.7 %
Track quality 100.0 %
Test CRC 2DFA34FF
Copy CRC 2DFA34FF
Copy OK
Track 5
Filename D:EAC FLAC FILES5 - Die Hard The Hunter.wav
Pre-gap length 0:12:19.66
Peak level 97.7 %
Track quality 100.0 %
Test CRC 127BA76E
Copy CRC 127BA76E
Copy OK
Track 6
Filename D:EAC FLAC FILES6 - Foolin'.wav
Pre-gap length 0:18:35.66
Peak level 98.1 %
Track quality 100.0 %
Test CRC 56A23617
Copy CRC 56A23617
Copy OK
Track 7
Filename D:EAC FLAC FILES7 - Rock Of Ages.wav
Pre-gap length 0:23:09.53
Peak level 95.7 %
Track quality 100.0 %
Test CRC 7CAC68DA
Copy CRC 7CAC68DA
Copy OK
Track 8
Filename D:EAC FLAC FILES8 - Comin' Under Fire.wav
Pre-gap length 0:27:17.44
Peak level 95.7 %
Track quality 100.0 %
Test CRC 38A9A913
Copy CRC 38A9A913
Copy OK
Track 9
Filename D:EAC FLAC FILES9 - Action! Not Words.wav
Pre-gap length 0:31:31.86
Peak level 82.5 %
Track quality 100.0 %
Test CRC 6C585CBE
Copy CRC 6C585CBE
Copy OK
Track 10
Filename D:EAC FLAC FILES10 - Billy's Got A Gun.wav
Pre-gap length 0:35:20.73
Peak level 87.2 %
Track quality 100.0 %
Test CRC 1D4E2D24
Copy CRC 1D4E2D24
Copy OK
No errors occured
End of status report

cuetools report:

[CUETools log; Date: 2015.11.30. 22:29:07; Version: 2.1.5]
[CTDB TOCID: zcQO2JaEjguZD_HjyhHMSOqVq6o-] found.
Track | CTDB Status
1 | (16/18) Accurately ripped, or (2/18) differs in 93 samples @00:08:62
2 | (18/18) Accurately ripped
3 | (18/18) Accurately ripped
4 | (18/18) Accurately ripped
5 | (18/18) Accurately ripped
6 | (18/18) Accurately ripped
7 | (18/18) Accurately ripped
8 | (18/18) Accurately ripped
9 | (18/18) Accurately ripped
10 | (18/18) Accurately ripped
[AccurateRip ID: 00108b3f-008584be-8e0a980a] found.
Track [ CRC | V2 ] Status
01 [a382de5a|5ee72516] (02+09/15) Accurately ripped
02 [664e3197|b14c8139] (02+09/15) Accurately ripped
03 [d8334b5a|64a409aa] (02+09/15) Accurately ripped
04 [9d9a3057|ab0ccea6] (03+09/16) Accurately ripped
05 [553ba03e|7a28a673] (03+09/16) Accurately ripped
06 [374c0282|b6cf72da] (03+09/16) Accurately ripped
07 [0df84b6f|688deffb] (03+09/16) Accurately ripped
08 [9c13f844|7d24523c] (03+09/16) Accurately ripped
09 [c06218e2|9d8eb512] (02+09/15) Accurately ripped
10 [ee443c6e|200d8720] (03+09/16) Accurately ripped
Offsetted by -18:
01 [749754c0] (00/15) No match (V2 was not tested)
02 [6fea4f3e] (00/15) No match (V2 was not tested)
03 [57bf5db8] (00/15) No match (V2 was not tested)
04 [2645554b] (00/16) No match (V2 was not tested)
05 [2667be70] (00/16) No match (V2 was not tested)
06 [dd955b43] (00/16) No match (V2 was not tested)
07 [176998dc] (00/16) No match (V2 was not tested)
08 [eaa5ff56] (00/16) No match (V2 was not tested)
09 [7a760c7e] (00/15) No match (V2 was not tested)
10 [aeb58a6f] (00/16) No match (V2 was not tested)
Offsetted by 294:
01 [c8cd46bc] (00/15) No match (V2 was not tested)
02 [76d43433] (00/15) No match (V2 was not tested)
03 [d526b09f] (00/15) No match (V2 was not tested)
04 [0fa711e3] (00/16) No match (V2 was not tested)
05 [0fe5c546] (00/16) No match (V2 was not tested)
06 [322c2ed0] (00/16) No match (V2 was not tested)
07 [cf28cde3] (00/16) No match (V2 was not tested)
08 [dc6b8e58] (00/16) No match (V2 was not tested)
09 [9e6c180d] (00/15) No match (V2 was not tested)
10 [d8c76800] (00/16) No match (V2 was not tested)
Track Peak [ CRC32 ] [W/O NULL] [ LOG ]
-- 98,7 [B57E9E32] [27915F87]
01 97,8 [25A89E57] [6F398AFF] CRC32
02 95,5 [CCC91736] [17AD2C04] CRC32
03 88,0 [3C063CD0] [70301609] CRC32
04 98,7 [2DFA34FF] [6DF015EA] CRC32
05 97,7 [127BA76E] [945490E6] CRC32
06 98,1 [56A23617] [D64C0EE9] CRC32
07 95,7 [7CAC68DA] [B42182F2] CRC32
08 95,7 [38A9A913] [2D40F7EA] CRC32
09 82,5 [6C585CBE] [462890BF] CRC32
10 87,2 [1D4E2D24] [D096E503] CRC32

Where Pyromania had set the standard for polished, catchy pop-metal, Hysteria only upped the ante. Pyromania's slick, layered Mutt Lange production turned into a painstaking obsession with dense sonic detail on Hysteria, with the result that some critics dismissed the record as a stiff, mechanized pop sell-out (perhaps due in part to Rick Allen's new, partially electronic drum kit). But Def Leppard's music had always employed big, anthemic hooks, and few of the pop-metal bands who had hit the charts in the wake of Pyromania could compete with Leppard's sense of craft; certainly none had the pop songwriting savvy to produce seven chart singles from the same album, as the stunningly consistent Hysteria did. Joe Elliott's lyrics owe an obvious debt to his obsession with T. Rex, particularly on the playfully silly anthem "Pour Some Sugar on Me," and the British glam rock tribute "Rocket," while power ballads like "Love Bites" and the title track lack the histrionics or gooey sentimentality of many similar offerings. The strong pop hooks and "perfect"-sounding production of Hysteria may not appeal to die-hard heavy metal fans, but it isn't heavy metal -- it's pop-metal, and arguably the best pop-metal ever recorded. Its blockbuster success helped pave the way for a whole new second wave of hair metal bands, while proving that the late-'80s musical climate could also be very friendly to veteran hard rock acts, a lead many would follow in the next few years. ~Allmusic
Track listing
01. Women (5:43)
02. Rocket (6:38)
03. Animal (4:05)
04. Love Bites (5:47)
05. Pour Some Sugar On Me (4:27)
06. Armageddon It (5:24)
07. Gods of War (6:37)
08. Don't Shoot Shotgun (4:27)
09. Run Riot (4:39)
10. Hysteria (5:55)
11. Excitable (4:19)
12. Love and Affection (4:35)
13. Love and Affection (Live) (4:53)
~ (67:28)
eac log:

EAC extraction logfile from 10. May 2008, 15:54 for CD
Def Leppard / Hysteria {Japan UICY-93453}
Used drive : ASUS DRW-2014L1 Adapter: 0 ID: 3
Read mode : Secure with NO C2, accurate stream, disable cache
Read offset correction : 6
Overread into Lead-In and Lead-Out : No
Used output format : C:Program FilesFLACflac.exe (User Defined Encoder)
320 kBit/s
Additional command line options : -V -8 -T "artist=%a" -T "title=%t" -T "album=%g" -T "date=%y" -T "tracknumber=%n" -T "genre=%m" %s
Other options :
Fill up missing offset samples with silence : Yes
Delete leading and trailing silent blocks : No
Installed external ASPI interface
Track 1
Filename D:EAC FLAC FILES1 - Women.wav
Pre-gap length 0:00:02.00
Peak level 96.6 %
Track quality 100.0 %
Test CRC 3913CF7E
Copy CRC 3913CF7E
Copy OK
Track 2
Filename D:EAC FLAC FILES2 - Rocket.wav
Peak level 96.7 %
Track quality 100.0 %
Test CRC C7565443
Copy CRC C7565443
Copy OK
Track 3
Filename D:EAC FLAC FILES3 - Animal.wav
Peak level 96.6 %
Track quality 100.0 %
Test CRC 493240D0
Copy CRC 493240D0
Copy OK
Track 4
Filename D:EAC FLAC FILES4 - Love Bites.wav
Peak level 85.4 %
Track quality 100.0 %
Test CRC 8BF2786E
Copy CRC 8BF2786E
Copy OK
Track 5
Filename D:EAC FLAC FILES5 - Pour Some Sugar On Me.wav
Peak level 96.9 %
Track quality 100.0 %
Test CRC EA6C1A14
Copy CRC EA6C1A14
Copy OK
Track 6
Filename D:EAC FLAC FILES6 - Armageddon It.wav
Peak level 95.7 %
Track quality 100.0 %
Test CRC 81779B02
Copy CRC 81779B02
Copy OK
Track 7
Filename D:EAC FLAC FILES7 - Gods of War.wav
Peak level 96.6 %
Track quality 100.0 %
Test CRC 6DFDEEED
Copy CRC 6DFDEEED
Copy OK
Track 8
Filename D:EAC FLAC FILES8 - Don't Shoot Shotgun.wav
Peak level 96.5 %
Track quality 100.0 %
Test CRC 5F018C16
Copy CRC 5F018C16
Copy OK
Track 9
Filename D:EAC FLAC FILES9 - Run Riot.wav
Peak level 95.0 %
Track quality 100.0 %
Test CRC 0356D768
Copy CRC 0356D768
Copy OK
Track 10
Filename D:EAC FLAC FILES10 - Hysteria.wav
Peak level 96.7 %
Track quality 100.0 %
Test CRC 6A66991A
Copy CRC 6A66991A
Copy OK
Track 11
Filename D:EAC FLAC FILES11 - Excitable.wav
Peak level 94.3 %
Track quality 100.0 %
Test CRC 80544B05
Copy CRC 80544B05
Copy OK
Track 12
Filename D:EAC FLAC FILES12 - Love and Affection.wav
Peak level 91.5 %
Track quality 100.0 %
Test CRC 30832F3B
Copy CRC 30832F3B
Copy OK
Track 13
Filename D:EAC FLAC FILES13 - Love and Affection (Live).wav
Peak level 88.6 %
Track quality 100.0 %
Test CRC 8E68BEA8
Copy CRC 8E68BEA8
Copy OK
No errors occured
End of status report

cuetools report:

[CUETools log; Date: 2015.11.30. 22:04:46; Version: 2.1.5]
[CTDB TOCID: nvrBsOi1MtlDOS953bUAHK_loJA-] found.
Track | CTDB Status
1 | (22/22) Accurately ripped
2 | (22/22) Accurately ripped
3 | (22/22) Accurately ripped
4 | (22/22) Accurately ripped
5 | (22/22) Accurately ripped
6 | (22/22) Accurately ripped
7 | (22/22) Accurately ripped
8 | (22/22) Accurately ripped
9 | (22/22) Accurately ripped
10 | (22/22) Accurately ripped
11 | (22/22) Accurately ripped
12 | (22/22) Accurately ripped
13 | (22/22) Accurately ripped
[AccurateRip ID: 00216b2c-014b9a42-be0fd00d] found.
Track [ CRC | V2 ] Status
01 [4d8cd831|b35fed43] (04+17/25) Accurately ripped
02 [5dc5a81a|6770f5f2] (04+17/25) Accurately ripped
03 [d00d1cbc|7cd0f254] (04+17/25) Accurately ripped
04 [562e9268|0e1401c7] (04+17/25) Accurately ripped
05 [675d4dbe|39d8e297] (04+17/25) Accurately ripped
06 [021e5c2e|b289782b] (04+17/25) Accurately ripped
07 [a82abdd2|11e9ed51] (04+17/25) Accurately ripped
08 [f61c84e3|a43fc4d6] (04+17/23) Accurately ripped
09 [1f57ee31|f8524caa] (04+17/25) Accurately ripped
10 [4dca3434|66cfa444] (04+17/25) Accurately ripped
11 [ccd93905|5c70db7d] (04+17/25) Accurately ripped
12 [a72e9a6b|68933595] (04+17/25) Accurately ripped
13 [034941e4|f910dda7] (04+16/22) Accurately ripped
Offsetted by -18:
01 [a7617f1e] (02/25) Accurately ripped
02 [dc22814e] (02/25) Accurately ripped
03 [8ce6d128] (02/25) Accurately ripped
04 [cf0fa6dc] (02/25) Accurately ripped
05 [5b123c48] (02/25) Accurately ripped
06 [50944870] (02/25) Accurately ripped
07 [95c71b27] (02/25) Accurately ripped
08 [5325becb] (00/23) No match (V2 was not tested)
09 [4b53164a] (02/25) Accurately ripped
10 [f7fc9059] (02/25) Accurately ripped
11 [42e5ca8c] (02/25) Accurately ripped
12 [0d5cf528] (02/25) Accurately ripped
13 [ee589220] (00/22) No match (V2 was not tested)
Offsetted by 6:
01 [f48547e0] (00/25) No match (V2 was not tested)
02 [a657726e] (00/25) No match (V2 was not tested)
03 [58f4abde] (00/25) No match (V2 was not tested)
04 [9d06a46f] (00/25) No match (V2 was not tested)
05 [5e2a767f] (00/25) No match (V2 was not tested)
06 [bc928fa8] (00/25) No match (V2 was not tested)
07 [e9fbcbc7] (00/25) No match (V2 was not tested)
08 [afa792ca] (00/23) No match (V2 was not tested)
09 [fbef1233] (00/25) No match (V2 was not tested)
10 [3985b6ee] (00/25) No match (V2 was not tested)
11 [c0f016dc] (00/25) No match (V2 was not tested)
12 [dd5f7fbd] (00/25) No match (V2 was not tested)
13 [b4eed1d0] (00/22) No match (V2 was not tested)
Track Peak [ CRC32 ] [W/O NULL] [ LOG ]
-- 96,9 [8F3A8CE0] [F639207B]
01 96,6 [3913CF7E] [FE35DABE] CRC32
02 96,7 [C7565443] [47516F15] CRC32
03 96,6 [493240D0] [C959BA5F] CRC32
04 85,4 [8BF2786E] [AF1BD57F] CRC32
05 96,9 [EA6C1A14] [218C8498] CRC32
06 95,7 [81779B02] [E78BF20E] CRC32
07 96,6 [6DFDEEED] [C3B20802] CRC32
08 96,5 [5F018C16] [5CEE1CF9] CRC32
09 95,0 [0356D768] [10AA9BF6] CRC32
10 96,7 [6A66991A] [CDFDA02E] CRC32
11 94,3 [80544B05] [DCCB1A9B] CRC32
12 91,5 [30832F3B] [3F850C2A] CRC32
13 88,6 [8E68BEA8] [53913FDC] CRC32

After two straight blockbusters that delivered the goods both musically and commercially, anticipation ran high for Def Leppard's follow-up to Hysteria, in spite of the tragic death of guitarist Steve Clark. Unfortunately, Adrenalize sounds somewhat tired, formulaic, and bland, qualities absent from the band's best pop-metal work. Perhaps somewhat understandably, Leppard doesn't sound like their heart is really in the party anthems, and their ballads sound more calculated and generic. But most of all, the songs don't really have the effortlessly anthemic feel Leppard achieved so well on their past two albums, even though they try mightily. Adrenalize is competent, workmanlike, and impeccably produced, but not much more. ~Allmusic
Track listing
01. Let's Get Rocked (4:57)
02. Heaven Is (3:34)
03. Make Love Like A Man (4:16)
04. Tonight (4:03)
05. White Lightning (7:03)
06. Stand Up (Kick Love Into Motion) (4:33)
07. Personal Property (4:21)
08. Have You Ever Needed Someone So Bad (5:24)
09. I Wanna Touch U (3:38)
10. Tear It Down (3:38)
11. Miss You In A Heartbeat (5:06)
12. She's Too Tough (3:44)
~ (54:16)
eac log:

EAC extraction logfile from 10. May 2008, 17:13 for CD
Def Leppard / Adrenalize {Japan UICY-93454}
Used drive : ASUS DRW-2014L1 Adapter: 0 ID: 3
Read mode : Secure with NO C2, accurate stream, disable cache
Read offset correction : 6
Overread into Lead-In and Lead-Out : No
Used output format : C:Program FilesFLACflac.exe (User Defined Encoder)
320 kBit/s
Additional command line options : -V -8 -T "artist=%a" -T "title=%t" -T "album=%g" -T "date=%y" -T "tracknumber=%n" -T "genre=%m" %s
Other options :
Fill up missing offset samples with silence : Yes
Delete leading and trailing silent blocks : No
Installed external ASPI interface
Track 1
Filename D:EAC FLAC FILES1 - Let's Get Rocked.wav
Pre-gap length 0:00:02.00
Peak level 97.3 %
Track quality 100.0 %
Test CRC 0E2E4230
Copy CRC 0E2E4230
Copy OK
Track 2
Filename D:EAC FLAC FILES2 - Heaven Is.wav
Peak level 97.3 %
Track quality 99.9 %
Test CRC 52AC95AD
Copy CRC 52AC95AD
Copy OK
Track 3
Filename D:EAC FLAC FILES3 - Make Love Like A Man.wav
Peak level 97.3 %
Track quality 100.0 %
Test CRC BD3D38A6
Copy CRC BD3D38A6
Copy OK
Track 4
Filename D:EAC FLAC FILES4 - Tonight.wav
Peak level 97.3 %
Track quality 100.0 %
Test CRC 2E00DAA9
Copy CRC 2E00DAA9
Copy OK
Track 5
Filename D:EAC FLAC FILES5 - White Lightning.wav
Peak level 97.3 %
Track quality 99.9 %
Test CRC 985D262F
Copy CRC 985D262F
Copy OK
Track 6
Filename D:EAC FLAC FILES6 - Stand Up (Kick Love Into Motion).wav
Peak level 97.3 %
Track quality 100.0 %
Test CRC E88A4D45
Copy CRC E88A4D45
Copy OK
Track 7
Filename D:EAC FLAC FILES7 - Personal Property.wav
Peak level 97.3 %
Track quality 100.0 %
Test CRC 31C90B59
Copy CRC 31C90B59
Copy OK
Track 8
Filename D:EAC FLAC FILES8 - Have You Ever Needed Someone So Bad.wav
Peak level 97.3 %
Track quality 100.0 %
Test CRC 68A522AA
Copy CRC 68A522AA
Copy OK
Track 9
Filename D:EAC FLAC FILES9 - I Wanna Touch U.wav
Peak level 97.3 %
Track quality 100.0 %
Test CRC 36CB5E19
Copy CRC 36CB5E19
Copy OK
Track 10
Filename D:EAC FLAC FILES10 - Tear It Down.wav
Peak level 100.0 %
Track quality 100.0 %
Test CRC 618CF714
Copy CRC 618CF714
Copy OK
Track 11
Filename D:EAC FLAC FILES11 - Miss You In A Heartbeat.wav
Peak level 97.3 %
Track quality 99.9 %
Test CRC 7910B97D
Copy CRC 7910B97D
Copy OK
Track 12
Filename D:EAC FLAC FILES12 - She's Too Tough.wav
Peak level 97.3 %
Track quality 100.0 %
Test CRC 6B933435
Copy CRC 6B933435
Copy OK
No errors occured
End of status report

cuetools report:

[CUETools log; Date: 2015.11.30. 22:03:52; Version: 2.1.5]
[CTDB TOCID: GPzTRoXeay_xOL4LYPL6QP4bsVc-] found.
Track | CTDB Status
1 | (16/16) Accurately ripped
2 | (16/16) Accurately ripped
3 | (16/16) Accurately ripped
4 | (16/16) Accurately ripped
5 | (16/16) Accurately ripped
6 | (16/16) Accurately ripped
7 | (16/16) Accurately ripped
8 | (15/16) Accurately ripped
9 | (16/16) Accurately ripped
10 | (16/16) Accurately ripped
11 | (16/16) Accurately ripped
12 | (16/16) Accurately ripped
[AccurateRip ID: 00189b02-00e5e9c8-9a0cb80c] found.
Track [ CRC | V2 ] Status
01 [133e21a6|ebaa4b32] (04+07/33) Accurately ripped
02 [330697ac|ea287ee5] (04+07/33) Accurately ripped
03 [a7c631c0|60f46aa7] (04+07/33) Accurately ripped
04 [5cee24c7|7060a50d] (04+07/33) Accurately ripped
05 [49df4566|6b409f1a] (04+07/33) Accurately ripped
06 [29ed8194|542ec697] (04+07/33) Accurately ripped
07 [97303cff|2342cd5a] (04+07/33) Accurately ripped
08 [2be29467|0b17cfb0] (04+07/32) Accurately ripped
09 [1a4a8c79|792d1f29] (04+07/33) Accurately ripped
10 [9c41e1ed|3273b202] (04+07/33) Accurately ripped
11 [c5e457f6|14d28802] (04+07/33) Accurately ripped
12 [23026d8d|f42fd142] (04+07/33) Accurately ripped
Offsetted by -643:
01 [ef195119] (04/33) Accurately ripped
02 [09b11291] (04/33) Accurately ripped
03 [43ae2b20] (04/33) Accurately ripped
04 [12310de1] (04/33) Accurately ripped
05 [f5b9b866] (04/33) Accurately ripped
06 [63382411] (04/33) Accurately ripped
07 [a0bfb060] (04/33) Accurately ripped
08 [a78148cf] (04/32) Accurately ripped
09 [9723802b] (04/33) Accurately ripped
10 [dc793bd0] (04/33) Accurately ripped
11 [22d0d8a1] (04/33) Accurately ripped
12 [2d5b6f0b] (04/33) Accurately ripped
Offsetted by -30:
01 [b205558d] (02/33) Accurately ripped
02 [47d7da6e] (02/33) Accurately ripped
03 [0fe39c36] (02/33) Accurately ripped
04 [c6e9550f] (02/33) Accurately ripped
05 [bd655c30] (02/33) Accurately ripped
06 [b22ece90] (02/33) Accurately ripped
07 [e5ff2979] (02/33) Accurately ripped
08 [454d25f6] (02/32) Accurately ripped
09 [0169d93b] (02/33) Accurately ripped
10 [1c9330f9] (02/33) Accurately ripped
11 [70b86705] (02/33) Accurately ripped
12 [6a81531c] (02/33) Accurately ripped
Offsetted by -715:
01 [96475cd5] (00/33) No match (V2 was not tested)
02 [55de910c] (00/33) No match (V2 was not tested)
03 [f340a52b] (00/33) No match (V2 was not tested)
04 [911579b2] (00/33) No match (V2 was not tested)
05 [a3ed6f32] (00/33) No match (V2 was not tested)
06 [301cb0e3] (00/33) No match (V2 was not tested)
07 [9cd70101] (00/33) No match (V2 was not tested)
08 [ac79ab9b] (00/32) No match (V2 was not tested)
09 [254e57c3] (00/33) No match (V2 was not tested)
10 [6d042003] (00/33) No match (V2 was not tested)
11 [b565be36] (00/33) No match (V2 was not tested)
12 [ad9610a6] (00/33) No match (V2 was not tested)
Offsetted by -193:
01 [ee80fade] (00/33) No match (V2 was not tested)
02 [11ddca71] (00/33) No match (V2 was not tested)
03 [ba0a0ecb] (00/33) No match (V2 was not tested)
04 [12063a2e] (00/33) No match (V2 was not tested)
05 [54af55fc] (00/33) No match (V2 was not tested)
06 [90cd7546] (00/33) No match (V2 was not tested)
07 [621c2278] (00/33) No match (V2 was not tested)
08 [fcc3ebee] (00/32) No match (V2 was not tested)
09 [ccac6c02] (00/33) No match (V2 was not tested)
10 [f0a4b75a] (00/33) No match (V2 was not tested)
11 [f0226cb3] (00/33) No match (V2 was not tested)
12 [dd73b72f] (00/33) No match (V2 was not tested)
Offsetted by -14:
01 [5053f33c] (00/33) No match (V2 was not tested)
02 [70bcf6f0] (00/33) No match (V2 was not tested)
03 [16f2a792] (00/33) No match (V2 was not tested)
04 [76e336d7] (00/33) No match (V2 was not tested)
05 [111a13e3] (00/33) No match (V2 was not tested)
06 [dcf73b74] (00/33) No match (V2 was not tested)
07 [5d95a916] (00/33) No match (V2 was not tested)
08 [9739de35] (00/32) No match (V2 was not tested)
09 [4539f6d6] (00/33) No match (V2 was not tested)
10 [01c97089] (00/33) No match (V2 was not tested)
11 [e7be2b8c] (00/33) No match (V2 was not tested)
12 [96950892] (00/33) No match (V2 was not tested)
Offsetted by 6:
01 [38483f40] (00/33) No match (V2 was not tested)
02 [4e282bff] (00/33) No match (V2 was not tested)
03 [30cb3f4e] (00/33) No match (V2 was not tested)
04 [fb6b70c6] (00/33) No match (V2 was not tested)
05 [de5f3295] (00/33) No match (V2 was not tested)
06 [950d8c36] (00/33) No match (V2 was not tested)
07 [f934fe15] (00/33) No match (V2 was not tested)
08 [d6770daa] (00/32) No match (V2 was not tested)
09 [d166d8ce] (00/33) No match (V2 was not tested)
10 [8edaa6d2] (00/33) No match (V2 was not tested)
11 [e5e6230d] (00/33) No match (V2 was not tested)
12 [18127666] (00/33) No match (V2 was not tested)
Track Peak [ CRC32 ] [W/O NULL] [ LOG ]
-- 100,0 [68DB1D83] [2E814257]
01 97,3 [0E2E4230] [A318EE4B] CRC32
02 97,3 [52AC95AD] [5A57CAC1] CRC32
03 97,3 [BD3D38A6] [31A988B1] CRC32
04 97,3 [2E00DAA9] [877A7160] CRC32
05 97,3 [985D262F] [F209ED28] CRC32
06 97,3 [E88A4D45] [CBF89AE8] CRC32
07 97,3 [31C90B59] [E26FFADA] CRC32
08 97,3 [68A522AA] [D320906A] CRC32
09 97,3 [36CB5E19] [2D656BD8] CRC32
10 100,0 [618CF714] [49D2D2C4] CRC32
11 97,3 [7910B97D] [1FDFDEBB] CRC32
12 97,3 [6B933435] [4EA8E309] CRC32

original uploader unknown

Download Now :

 
[related-news] Related News:

{related-news} [/related-news]

ADVERTISING » Full And Free Download
Direct Download Free Def Leppard - Pyromania: Promo Box .zip
« ADVERTISING

Def Leppard - Pyromania: Promo Box Copyright

dlbin periodically updates infomation and download links of Def Leppard - Pyromania: Promo Box .You should confirm all information before relying on it. eBook piracy is theft, Def Leppard - Pyromania: Promo Box download torrent,direct link,prefiles.com,Def Leppard - Pyromania: Promo Box dropbox.com,Def Leppard - Pyromania: Promo Box mediafire.com,Def Leppard - Pyromania: Promo Box rapidgator.net,Def Leppard - Pyromania: Promo Box filefactory.com,Def Leppard - Pyromania: Promo Box uploaded.net,oboom.com at here Please contact hostfile


Write a Comment For"Def Leppard - Pyromania: Promo Box "




Recent searches:
File searchcloudcache.php not found.

Remember Me?
BOOKSMARK US

rss feed

Get newest via RSS reader

feed burner

Mail Daily Letter

Enter your email address:

PUBLICATION ARCHIVE
«    January 2017    »
MonTueWedThuFriSatSun
 1
2345678
9101112131415
16171819202122
23242526272829
3031 

Main/Menu

WE RECOMMEND TO VISIT:

^ Top