Loading...


Loading




Author : Poster | Date : 3-12-2015, 12:00 | Comments : 0 |
|

Man Made - Man Made (1972)
EAC | Flac(Image) + Cue + Log & MP3 CBR 320Kbps
2010 | Mandala, 273 | ~ 244 or 104 Mb | Scans Included
Progressive Rock / Psychedelic Rock

Montreal-based Canadian progressive gem... side 1 includes only one long(19'54") track entitled "Mann Made" , which is very interesting,mixing progressive,classical and elctronic music with spooky and dreamy organ passages,acidy guitarleads,flute solos,harsh vocals...


Montreal-based Canadian progressive gem... side 1 includes only one long(19'54")track entitled "Mann Made" , which is very interesting,mixing progressive,classical and elctronic music with spooky and dreamy organ passages,acidy guitarleads,flute solos,harsh vocals...
side 2 except "Keep On Moving" ,which utilises fast rhythms with horns and synthesizers contains more slow and melodic moments like "Country Company" and "Reflections" with a hypnotic mood... "Carnival" is a strong mid-tempo ballad,sounding like a combination of Tim Buckley and Tim Hardin, but with also harsh vocals...the cut called "Evolution" ,which is the album's highlight,features good rhythm and stunning lead guitar work with several similarities to Pink Floyd's music...

Tracklist:
01. Man Made 19:50
02. Carnival 05:10
03. Reflections 03:09
04. Evolution 03:15
05. Keep On Moving 02:21
06. Country Company 02:42
Musicians:
Billy Ledster - vocals, electric piano
Jean Ranger - organ, synthesizer, backing vocals
Richard Terry - bass, backing vocals
Claude Roy - drums
Roger Walls - horns, flute
Michel Como - vocal on "Man Made"

EAC Log
Exact Audio Copy V1.1 from 23. June 2015
EAC extraction logfile from 2. December 2015, 11:37
Man Made / Man Made
Used drive : TSSTcorpCDDVDW SH-224DB Adapter: 1 ID: 0
Read mode : Secure
Utilize accurate stream : Yes
Defeat audio cache : Yes
Make use of C2 pointers : No
Read offset correction : 6
Overread into Lead-In and Lead-Out : No
Fill up missing offset samples with silence : Yes
Delete leading and trailing silent blocks : No
Null samples used in CRC calculations : Yes
Used interface : Native Win32 interface for Win NT & 2000
Used output format : User Defined Encoder
Selected bitrate : 1024 kBit/s
Quality : High
Add ID3 tag : No
Command line compressor : C:Program Files (x86)Exact Audio Copywin64flac.exe
Additional command line options : -V -8 -T "Date=%year%" -T "Genre=%genre%" %source%
TOC of the extracted CD
Track | Start | Length | Start sector | End sector
---------------------------------------------------------
1 | 0:00.00 | 19:50.52 | 0 | 89301
2 | 19:50.52 | 5:10.73 | 89302 | 112624
3 | 25:01.50 | 3:09.35 | 112625 | 126834
4 | 28:11.10 | 3:15.59 | 126835 | 141518
5 | 31:26.69 | 2:21.67 | 141519 | 152160
6 | 33:48.61 | 2:42.51 | 152161 | 164361
Range status and errors
Selected range
Filename C:Sket4erMan Made - Man Made (1972) 2010Man Made - Man Made.wav
Peak level 98.4 %
Extraction speed 2.7 X
Range quality 100.0 %
Test CRC D2CF8B8D
Copy CRC D2CF8B8D
Copy OK
No errors occurred
AccurateRip summary
Track 1 cannot be verified as accurate (confidence 2) [FEAFF667], AccurateRip returned [8809A819] (AR v2)
Track 2 cannot be verified as accurate (confidence 2) [9E882F47], AccurateRip returned [0C62CFAC] (AR v2)
Track 3 cannot be verified as accurate (confidence 2) [9A76BAD5], AccurateRip returned [9FC991B4] (AR v2)
Track 4 cannot be verified as accurate (confidence 2) [FE1AE3C1], AccurateRip returned [E5B02BD4] (AR v2)
Track 5 cannot be verified as accurate (confidence 2) [B849D60E], AccurateRip returned [3F227179] (AR v2)
Track 6 cannot be verified as accurate (confidence 2) [01E6FEC1], AccurateRip returned [636634ED] (AR v2)
No tracks could be verified as accurate
You may have a different pressing from the one(s) in the database
End of status report
---- CUETools DB Plugin V2.1.6
[CTDB TOCID: 0NMDVA4.gAMBreOAqfbCULIQmFY-] found
Submit result: 0NMDVA4.gAMBreOAqfbCULIQmFY- has been confirmed
Track | CTDB Status
1 | (1/1) Accurately ripped
2 | (1/1) Accurately ripped
3 | (1/1) Accurately ripped
4 | (1/1) Accurately ripped
5 | (1/1) Accurately ripped
6 | (1/1) Accurately ripped
==== Log checksum 98802CD92A09F9A3CDE39FD1E0BD1C2C9396DF3567D6B67129B84874B9FF6EDB ====

DR Log
foobar2000 1.2.9 / Dynamic Range Meter 1.1.1
log date: 2015-12-02 17:46:57
--------------------------------------------------------------------------------
Analyzed: Man Made / Man Made
--------------------------------------------------------------------------------
DR Peak RMS Duration Track
--------------------------------------------------------------------------------
DR7 -0.14 dB -10.85 dB 19:51 01-Man Made
DR10 -0.20 dB -11.92 dB 5:11 02-Carnival
DR14 -0.30 dB -16.49 dB 3:09 03-Reflections
DR11 -0.29 dB -13.93 dB 3:16 04-Evolution
DR8 -0.20 dB -10.91 dB 2:22 05-Keep On Moving
DR11 -0.24 dB -14.14 dB 2:43 06-Country Company
--------------------------------------------------------------------------------
Number of tracks: 6
Official DR value: DR10
Samplerate: 44100 Hz
Channels: 2
Bits per sample: 16
Bitrate: 865 kbps
Codec: FLAC

CUETools Log
[CUETools log; Date: 02.12.2015 12:23:58; Version: 2.1.4]
[CTDB TOCID: 0NMDVA4.gAMBreOAqfbCULIQmFY-] found.
Track | CTDB Status
1 | (2/2) Accurately ripped
2 | (2/2) Accurately ripped
3 | (2/2) Accurately ripped
4 | (2/2) Accurately ripped
5 | (2/2) Accurately ripped
6 | (2/2) Accurately ripped
[AccurateRip ID: 000c0174-0039e7e3-49088f06] found.
Track [ CRC | V2 ] Status
01 [eb928519|feaff667] (0+0/2) No match
02 [5d290c8c|9e882f47] (0+0/2) No match
03 [a9fa000c|9a76bad5] (0+0/2) No match
04 [9b184cec|fe1ae3c1] (0+0/2) No match
05 [6753e601|b849d60e] (0+0/2) No match
06 [eca6fe7d|01e6fec1] (0+0/2) No match
Offsetted by 664:
01 [8809a819] (2/2) Accurately ripped
02 [0c62cfac] (2/2) Accurately ripped
03 [9fc991b4] (2/2) Accurately ripped
04 [e5b02bd4] (2/2) Accurately ripped
05 [3f227179] (2/2) Accurately ripped
06 [636634ed] (2/2) Accurately ripped
Track Peak [ CRC32 ] [W/O NULL] [ LOG ]
-- 98,4 [D2CF8B8D] [ABDD1B86] CRC32
01 98,4 [F254053B] [7C0F7BF5]
02 97,7 [AE9263DB] [F2B733AA]
03 96,6 [6CE841C5] [8B09B4E0]
04 96,6 [2AA49C9D] [F4956013]
05 97,7 [53929EFD] [B291923D]
06 97,2 [580FF7C9] [AE27B0AB]

All thanks go to Sket4er

Download Now :

 
[related-news] Related News:

{related-news} [/related-news]

ADVERTISING » Full And Free Download
Direct Download Free Man Made - Man Made .zip
« ADVERTISING

Man Made - Man Made Copyright

dlbin periodically updates infomation and download links of Man Made - Man Made .You should confirm all information before relying on it. eBook piracy is theft, Man Made - Man Made download torrent,direct link,prefiles.com,Man Made - Man Made dropbox.com,Man Made - Man Made mediafire.com,Man Made - Man Made rapidgator.net,Man Made - Man Made filefactory.com,Man Made - Man Made uploaded.net,oboom.com at here Please contact hostfile


Write a Comment For"Man Made - Man Made "




Recent searches:
File searchcloudcache.php not found.

Remember Me?
BOOKSMARK US

rss feed

Get newest via RSS reader

feed burner

Mail Daily Letter

Enter your email address:

PUBLICATION ARCHIVE
«    January 2017    »
MonTueWedThuFriSatSun
 1
2345678
9101112131415
16171819202122
23242526272829
3031 

Main/Menu

WE RECOMMEND TO VISIT:

^ Top