Loading...


Loading




Author : Poster | Date : 3-12-2015, 12:01 | Comments : 0 |
|

Petra - Beyond Belief (1990)
EAC Rip | FLAC: Image+Cue+Log | 317 Mb | MP3 CBR 320 kbps | 119 Mb | Scans | Time: 44:01
Genre: Hard Rock, Arena Rock, CCM | Label: DaySpring | Cat.№: 70141941624

Beyond Belief is the twelfth studio album of the Christian rock band, Petra. It was released on June 20, 1990. In this album the band continues to polish the hard rock/arena rock sound the band had been working on their previous efforts before their praise album (On Fire! and This Means War!). As of late 2011, this is the band's most successful album both critically and commercially, and it is considered by most to be the peak of their discography. The album won the band their first Grammy after five previous nominations, and was certified gold on October 3, 1995.


Beyond Belief is the twelfth studio album of the Christian rock band, Petra. It was released on June 20, 1990. In this album the band continues to polish the hard rock/arena rock sound the band had been working on their previous efforts before their praise album (On Fire! and This Means War!). As of late 2011, this is the band's most successful album both critically and commercially, and it is considered by most to be the peak of their discography. The album won the band their first Grammy after five previous nominations, and was certified gold on October 3, 1995.

Track Listing
01. Armed And Dangerous (04:06)
02. I Am On The Rock (04:37)
03. Creed (04:36)
04. Beyond Belief (05:06)
05. Love (04:10)
06. Underground (04:33)
07. Seen And Not Heard (03:54)
08. Last Daze (05:04)
09. What's In A Name (03:34)
10. Prayer (04:16)
Produced by John and Dino Elefante
The Band
• Bob Hartman - Guitars
• John Lawry - Keyboards
• Ronny Cates - Bass guitar
• Louie Weaver - Drums
• John Schlitt - Lead vocals
• background vocals - John Elefante, Dave Amato, Dino Elefante and John Schlitt
• background vocals on "Love" by Walt Harrah and the Los Alamitos Congregational Choir
• additional keyboards by John Andrew Schreiner
EAC Log
Exact Audio Copy V1.0 beta 3 from 29. August 2011
EAC extraction logfile from 1. May 2014, 14:33
Petra / Beyond Belief
Used drive : SlimtypeDVD A DS8A5SH Adapter: 0 ID: 1
Read mode : Secure
Utilize accurate stream : Yes
Defeat audio cache : Yes
Make use of C2 pointers : No
Read offset correction : 6
Overread into Lead-In and Lead-Out : No
Fill up missing offset samples with silence : Yes
Delete leading and trailing silent blocks : No
Null samples used in CRC calculations : Yes
Used interface : Native Win32 interface for Win NT & 2000
Used output format : User Defined Encoder
Selected bitrate : 320 kBit/s
Quality : High
Add ID3 tag : No
Command line compressor : C:Program Files (x86)Exact Audio CopyFlacflac.exe
Additional command line options : -V -8 -T "Date=%year%" -T "Genre=%genre%" %source%
TOC of the extracted CD
Track | Start | Length | Start sector | End sector
---------------------------------------------------------
1 | 0:00.37 | 4:06.33 | 37 | 18519
2 | 4:06.70 | 4:37.47 | 18520 | 39341
3 | 8:44.42 | 4:36.45 | 39342 | 60086
4 | 13:21.12 | 5:06.55 | 60087 | 83091
5 | 18:27.67 | 4:10.58 | 83092 | 101899
6 | 22:38.50 | 4:33.57 | 101900 | 122431
7 | 27:12.32 | 3:54.23 | 122432 | 140004
8 | 31:06.55 | 5:04.07 | 140005 | 162811
9 | 36:10.62 | 3:34.40 | 162812 | 178901
10 | 39:45.27 | 4:15.73 | 178902 | 198099
Range status and errors
Selected range
Filename D:My MusicPetra - 1990 Beyond BeliefPetra - Beyond Belief.wav
Peak level 97.7 %
Extraction speed 1.7 X
Range quality 100.0 %
Test CRC 26DA17BF
Copy CRC 26DA17BF
Copy OK
No errors occurred
AccurateRip summary
Track 1 accurately ripped (confidence 3) [D542178F] (AR v2)
Track 2 accurately ripped (confidence 3) [099B0BC2] (AR v2)
Track 3 accurately ripped (confidence 3) [81540AC7] (AR v2)
Track 4 accurately ripped (confidence 3) [47D13BCB] (AR v2)
Track 5 accurately ripped (confidence 3) [1503DF91] (AR v2)
Track 6 accurately ripped (confidence 3) [8ED2C81B] (AR v2)
Track 7 accurately ripped (confidence 3) [E521D4C7] (AR v2)
Track 8 accurately ripped (confidence 3) [BF793D36] (AR v2)
Track 9 accurately ripped (confidence 3) [7827BEF6] (AR v2)
Track 10 accurately ripped (confidence 3) [A1741487] (AR v2)
All tracks accurately ripped
End of status report
==== Log checksum 01A190F63391F6280B7AD335A2A2BAC69B17EED6A889EFBFCD0061417C2F94FD ====

Many thanks to the original uploader: kolushew

Download Now :

 
[related-news] Related News:

{related-news} [/related-news]

ADVERTISING » Full And Free Download
Direct Download Free Petra - Beyond Belief .zip
« ADVERTISING

Petra - Beyond Belief Copyright

dlbin periodically updates infomation and download links of Petra - Beyond Belief .You should confirm all information before relying on it. eBook piracy is theft, Petra - Beyond Belief download torrent,direct link,prefiles.com,Petra - Beyond Belief dropbox.com,Petra - Beyond Belief mediafire.com,Petra - Beyond Belief rapidgator.net,Petra - Beyond Belief filefactory.com,Petra - Beyond Belief uploaded.net,oboom.com at here Please contact hostfile


Write a Comment For"Petra - Beyond Belief "




Recent searches:
File searchcloudcache.php not found.

Remember Me?
BOOKSMARK US

rss feed

Get newest via RSS reader

feed burner

Mail Daily Letter

Enter your email address:

PUBLICATION ARCHIVE
«    January 2017    »
MonTueWedThuFriSatSun
 1
2345678
9101112131415
16171819202122
23242526272829
3031 

Main/Menu

WE RECOMMEND TO VISIT:

^ Top