Loading...


Loading




Author : Poster | Date : 3-12-2015, 12:01 | Comments : 0 |
|

Sting And The Radioactors - Nuclear Waste (1995)
EAC Rip | FLAC (Img) + Cue + Log ~ 151 Mb | MP3 CBR320 ~ 70 Mb
Scans Included (JPG, 600 dpi) | RAR 5% Recovery
Rock | Voiceprint #VP181CD

Recorded in Summer 1977 with an all star line up, this release consists of two tracks originally released as a 7" single in a limited edition of 500, plus three previously unreleased tracks. Backing Sting on these tracks are Steve Hillage (Gong), Steve Broughton (Edgar Broughton Band), Mike Howlett (Gong) and Harry Williamson. An essential purchase for Sting fans as this predates his material with The Police.


Recorded in Summer 1977 with an all star line up, this release consists of two tracks originally released as a 7" single in a limited edition of 500, plus three previously unreleased tracks. Backing Sting on these tracks are Steve Hillage (Gong), Steve Broughton (Edgar Broughton Band), Mike Howlett (Gong) and Harry Williamson. An essential purchase for Sting fans as this predates his material with The Police.

Track List:
01. Nuclear Waste [02:47]
02. Digital Love [04:06]
03. Spiral Diatribe [03:07]
04. No-Ozone Blue [03:26]
05. Nuclear Megawaste [03:20]
EAC Log
Exact Audio Copy V1.0 beta 3 from 29. August 2011
EAC extraction logfile from 9. November 2012, 21:31
Sting and The Radioactors / Nuclear Waste
Used drive : HL-DT-STBDDVDRW GBC-H20N Adapter: 1 ID: 0
Read mode : Secure
Utilize accurate stream : Yes
Defeat audio cache : Yes
Make use of C2 pointers : No
Read offset correction : 667
Overread into Lead-In and Lead-Out : No
Fill up missing offset samples with silence : Yes
Delete leading and trailing silent blocks : No
Null samples used in CRC calculations : Yes
Used interface : Native Win32 interface for Win NT & 2000
Used output format : User Defined Encoder
Selected bitrate : 1024 kBit/s
Quality : High
Add ID3 tag : No
Command line compressor : C:Program FilesExact Audio Copywavpack.exe
Additional command line options : -hm %source% %dest%
TOC of the extracted CD
Track | Start | Length | Start sector | End sector
---------------------------------------------------------
1 | 0:00.00 | 2:46.62 | 0 | 12511
2 | 2:46.62 | 4:05.53 | 12512 | 30939
3 | 6:52.40 | 3:06.22 | 30940 | 44911
4 | 9:58.62 | 3:25.35 | 44912 | 60321
5 | 13:24.22 | 3:19.38 | 60322 | 75284
Range status and errors
Selected range
Filename C:UsersProgDogMusicZALIVKISteve Hillage - Discography15 - Sting And The Radioactors - Nuclear WasteSting and The Radioactors - Nuclear Waste.wav
Peak level 97.3 %
Extraction speed 4.7 X
Range quality 100.0 %
Test CRC BA22FE4B
Copy CRC BA22FE4B
Copy OK
No errors occurred
AccurateRip summary
Track 1 cannot be verified as accurate (confidence 4) [670BB6DB], AccurateRip returned [EA87342F] (AR v2)
Track 2 cannot be verified as accurate (confidence 4) [7FDCF97C], AccurateRip returned [08E42837] (AR v2)
Track 3 cannot be verified as accurate (confidence 4) [BA752136], AccurateRip returned [3BC66313] (AR v2)
Track 4 cannot be verified as accurate (confidence 4) [7AEED13F], AccurateRip returned [EE929448] (AR v2)
Track 5 cannot be verified as accurate (confidence 4) [2AC17F90], AccurateRip returned [643C3E67] (AR v2)
No tracks could be verified as accurate
You may have a different pressing from the one(s) in the database
End of status report
---- CUETools DB Plugin V2.1.3
[CTDB TOCID: Td2lnwHm0YlrsNyNKdt54MrD8f8-] found, Submit result: Td2lnwHm0YlrsNyNKdt54MrD8f8- has been confirmed
[d1280562] (4/4) Accurately ripped
==== Log checksum 05AEB0AFC9B1FC78CACD692295AAC5ACF1857AB0C845F3E2A467CA1CFF5C17A7 ====

DR Log
foobar2000 1.2.6 / Dynamic Range Meter 1.1.1
log date: 2015-12-02 15:07:32
--------------------------------------------------------------------------------
Analyzed: Sting and The Radioactors / Nuclear Waste
--------------------------------------------------------------------------------
DR Peak RMS Duration Track
--------------------------------------------------------------------------------
DR6 -0.23 dB -8.38 dB 2:47 01-Nuclear Waste
DR9 -0.23 dB -10.80 dB 4:06 02-Digital Love
DR9 -0.23 dB -10.11 dB 3:06 03-Spiral Diatribe
DR7 -0.23 dB -9.05 dB 3:25 04-No-Ozone Blue
DR7 -0.23 dB -8.85 dB 3:20 05-Nuclear Megawaste
--------------------------------------------------------------------------------
Number of tracks: 5
Official DR value: DR7
Samplerate: 44100 Hz
Channels: 2
Bits per sample: 16
Bitrate: 958 kbps
Codec: FLAC
================================================================================

CUETools Log
[CUETools log; Date: 02.12.2015 15:07:26; Version: 2.1.5]
[CTDB TOCID: Td2lnwHm0YlrsNyNKdt54MrD8f8-] found.
Track | CTDB Status
1 | (7/7) Accurately ripped
2 | (7/7) Accurately ripped
3 | (7/7) Accurately ripped
4 | (7/7) Accurately ripped
5 | (7/7) Accurately ripped
[AccurateRip ID: 00036ae3-001008bd-2e03eb05] found.
Track [ CRC | V2 ] Status
01 [1447869f|670bb6db] (00+00/12) No match
02 [bbbe4aff|7fdcf97c] (00+00/12) No match
03 [b8ea436e|ba752136] (00+00/12) No match
04 [b14904f1|7aeed13f] (00+00/12) No match
05 [18ac3f77|2ac17f90] (00+00/12) No match
Offsetted by 664:
01 [ea87342f] (05/12) Accurately ripped
02 [08e42837] (05/12) Accurately ripped
03 [3bc66313] (05/12) Accurately ripped
04 [ee929448] (05/12) Accurately ripped
05 [643c3e67] (05/12) Accurately ripped
Track Peak [ CRC32 ] [W/O NULL] [ LOG ]
-- 97,3 [BA22FE4B] [EC3A74AB] CRC32
01 97,3 [88CF5DA9] [CAD5F749]
02 97,3 [97FF3E28] [1A5943C0]
03 97,3 [32EE3141] [0307404A]
04 97,3 [0A4F258E] [0CE4917D]
05 97,3 [B9213FA8] [CEAF6006]

Download Now :

 
[related-news] Related News:

{related-news} [/related-news]

ADVERTISING » Full And Free Download
Direct Download Free Sting And The Radioactors - Nuclear Waste .zip
« ADVERTISING

Sting And The Radioactors - Nuclear Waste Copyright

dlbin periodically updates infomation and download links of Sting And The Radioactors - Nuclear Waste .You should confirm all information before relying on it. eBook piracy is theft, Sting And The Radioactors - Nuclear Waste download torrent,direct link,prefiles.com,Sting And The Radioactors - Nuclear Waste dropbox.com,Sting And The Radioactors - Nuclear Waste mediafire.com,Sting And The Radioactors - Nuclear Waste rapidgator.net,Sting And The Radioactors - Nuclear Waste filefactory.com,Sting And The Radioactors - Nuclear Waste uploaded.net,oboom.com at here Please contact hostfile


Write a Comment For"Sting And The Radioactors - Nuclear Waste "




Recent searches:
File searchcloudcache.php not found.

Remember Me?
BOOKSMARK US

rss feed

Get newest via RSS reader

feed burner

Mail Daily Letter

Enter your email address:

PUBLICATION ARCHIVE
«    January 2017    »
MonTueWedThuFriSatSun
 1
2345678
9101112131415
16171819202122
23242526272829
3031 

Main/Menu

WE RECOMMEND TO VISIT:

^ Top