Loading...


Loading




Author : Poster | Date : 3-12-2015, 12:01 | Comments : 0 |
|

Ian Gillan - Live in Nottingham (2002)
EAC Rip | FLAC (Img) + Cue + Log ~ 362 Mb | MP3 CBR320 ~ 134 Mb
Scans Included (JPG, 300 dpi) | RAR 5% Recovery
Hard Rock | Classic Rock Productions #CRP1047

This title is part of the Bedrock series from Central Music. Unavailable for many years, these amazing live performances became the holy grail for connoisseurs of Classic Rock. Originally released on DVD, now this incredible new range features an audio CD of these legendary recordings. This recording has been digitally remastered and enhanced to bring you the best possible sound quality. Grab a front row seat as Gillan powers through a selection of the greatest hits of Gillan & Deep Purple.


This title is part of the Bedrock series from Central Music. Unavailable for many years, these amazing live performances became the holy grail for connoisseurs of Classic Rock. Originally released on DVD, now this incredible new range features an audio CD of these legendary recordings. This recording has been digitally remastered and enhanced to bring you the best possible sound quality. Grab a front row seat as Gillan powers through a selection of the greatest hits of Gillan & Deep Purple.

Track List:
01. Gut Reaction [04:31]
02. Demon's Eye [05:08]
03. Living For The City [04:49]
04. No More Cane On The Brazos [05:47]
05. I Thought So [07:42]
06. When A Blind Man Cries [06:35]
07. No Good Luck [04:35]
08. Lucille [03:27]
09. Smoke On The Water [07:55]
EAC Log
Exact Audio Copy V1.1 from 23. June 2015
EAC extraction logfile from 27. November 2015, 22:28
Ian Gillan / Live in Nottingham (CRP1047)
Used drive : PIONEER BD-RW BDR-209D Adapter: 0 ID: 5
Read mode : Secure
Utilize accurate stream : Yes
Defeat audio cache : Yes
Make use of C2 pointers : No
Read offset correction : 667
Overread into Lead-In and Lead-Out : No
Fill up missing offset samples with silence : Yes
Delete leading and trailing silent blocks : No
Null samples used in CRC calculations : Yes
Used interface : Installed external ASPI interface
Used output format : User Defined Encoder
Selected bitrate : 768 kBit/s
Quality : High
Add ID3 tag : No
Command line compressor : C:Program Files (x86)Exact Audio CopyFLACFLAC.EXE
Additional command line options : -6 -V -T "ARTIST=%artist%" -T "TITLE=%title%" -T "ALBUM=%albumtitle%" -T "DATE=%year%" -T "TRACKNUMBER=%tracknr%" -T "GENRE=%genre%" -T "COMMENT=%comment%" -T "BAND=%albuminterpret%" -T "ALBUMARTIST=%albuminterpret%" -T "COMPOSER=%composer%" %haslyrics%--tag-from-file=LYRICS="%lyricsfile%"%haslyrics% -T "DISCNUMBER=%cdnumber%" -T "TOTALDISCS=%totalcds%" -T "TOTALTRACKS=%numtracks%" %hascover%--picture="%coverfile%"%hascover% %source% -o %dest%
TOC of the extracted CD
Track | Start | Length | Start sector | End sector
---------------------------------------------------------
1 | 0:00.00 | 4:30.48 | 0 | 20297
2 | 4:30.48 | 5:07.66 | 20298 | 43388
3 | 9:38.39 | 4:48.27 | 43389 | 65015
4 | 14:26.66 | 5:46.09 | 65016 | 90974
5 | 20:13.00 | 7:41.51 | 90975 | 125600
6 | 27:54.51 | 6:34.47 | 125601 | 155197
7 | 34:29.23 | 4:34.22 | 155198 | 175769
8 | 39:03.45 | 3:26.18 | 175770 | 191237
9 | 42:29.63 | 7:54.56 | 191238 | 226843
Range status and errors
Selected range
Filename E:MUSICIan Gillan - Live in Nottingham (CRP1047).wav
Peak level 98.8 %
Extraction speed 7.5 X
Range quality 100.0 %
Test CRC 9D560998
Copy CRC 9D560998
Copy OK
No errors occurred
AccurateRip summary
Track 1 accurately ripped (confidence 2) [54002A18] (AR v1)
Track 2 accurately ripped (confidence 2) [45A20E8A] (AR v1)
Track 3 accurately ripped (confidence 2) [682DF760] (AR v1)
Track 4 accurately ripped (confidence 2) [4C69CF70] (AR v1)
Track 5 accurately ripped (confidence 2) [4FC6B907] (AR v1)
Track 6 accurately ripped (confidence 2) [57222D20] (AR v1)
Track 7 accurately ripped (confidence 2) [7431BFE9] (AR v1)
Track 8 accurately ripped (confidence 2) [5FF02255] (AR v1)
Track 9 accurately ripped (confidence 2) [A9ED6B86] (AR v1)
All tracks accurately ripped
End of status report
==== Log checksum 54E2D1A57C2F419140E171359C5904F5BBCDCD4465CF5A49340F866E77863A0C ====

DR Log
foobar2000 1.2.6 / Dynamic Range Meter 1.1.1
log date: 2015-12-02 14:14:01
--------------------------------------------------------------------------------
Analyzed: Ian Gillan / Live in Nottingham (CRP1047)
--------------------------------------------------------------------------------
DR Peak RMS Duration Track
--------------------------------------------------------------------------------
DR9 -0.10 dB -10.58 dB 4:31 01-Gut Reaction
DR10 -0.10 dB -11.21 dB 5:08 02-Demon's Eye
DR10 -0.10 dB -11.49 dB 4:48 03-Living For The City
DR10 -0.10 dB -13.18 dB 5:46 04-No More Cane On The Brazos
DR10 -0.10 dB -12.00 dB 7:42 05-I Thought So
DR9 -0.10 dB -12.48 dB 6:35 06-When A Blind Man Cries
DR10 -0.10 dB -11.22 dB 4:34 07-No Good Luck
DR10 -0.10 dB -11.16 dB 3:26 08-Lucille
DR10 -0.10 dB -11.21 dB 7:55 09-Smoke On The Water
--------------------------------------------------------------------------------
Number of tracks: 9
Official DR value: DR10
Samplerate: 44100 Hz
Channels: 2
Bits per sample: 16
Bitrate: 922 kbps
Codec: FLAC
================================================================================

CUETools Log
[CUETools log; Date: 02.12.2015 14:14:03; Version: 2.1.5]
[CTDB TOCID: mi8JRlZJmetY1aigvaHz_zf9ux4-] found.
Track | CTDB Status
1 | (4/4) Accurately ripped
2 | (4/4) Accurately ripped
3 | (4/4) Accurately ripped
4 | (4/4) Accurately ripped
5 | (4/4) Accurately ripped
6 | (4/4) Accurately ripped
7 | (4/4) Accurately ripped
8 | (4/4) Accurately ripped
9 | (4/4) Accurately ripped
[AccurateRip ID: 0010b2b9-007bec5d-720bd009] found.
Track [ CRC | V2 ] Status
01 [54002a18|ad15daf7] (2+0/2) Accurately ripped
02 [45a20e8a|b60201f0] (2+0/2) Accurately ripped
03 [682df760|32d5e7f7] (2+0/2) Accurately ripped
04 [4c69cf70|c4668b14] (2+0/2) Accurately ripped
05 [4fc6b907|d0d54dbf] (2+0/2) Accurately ripped
06 [57222d20|3765dc88] (2+0/2) Accurately ripped
07 [7431bfe9|13c5c9ba] (2+0/2) Accurately ripped
08 [5ff02255|b0244dc5] (2+0/2) Accurately ripped
09 [a9ed6b86|c559661e] (2+0/2) Accurately ripped
Track Peak [ CRC32 ] [W/O NULL] [ LOG ]
-- 98,8 [9D560998] [5181F524] CRC32
01 98,8 [6C2BD1E3] [C1E85E66]
02 98,8 [97E2C48B] [CEA83495]
03 98,8 [A49026FA] [261514B5]
04 98,8 [33FF5730] [3C80A554]
05 98,8 [7B1B4987] [682C7E6E]
06 98,8 [132639DF] [D40395AF]
07 98,8 [09928A5C] [B0E0B2AC]
08 98,8 [902AAF99] [29C3B33D]
09 98,8 [FAA020BE] [4B00116C]

Download Now :

 
[related-news] Related News:

{related-news} [/related-news]

ADVERTISING » Full And Free Download
Direct Download Free Ian Gillan - Live in Nottingham .zip
« ADVERTISING

Ian Gillan - Live in Nottingham Copyright

dlbin periodically updates infomation and download links of Ian Gillan - Live in Nottingham .You should confirm all information before relying on it. eBook piracy is theft, Ian Gillan - Live in Nottingham download torrent,direct link,prefiles.com,Ian Gillan - Live in Nottingham dropbox.com,Ian Gillan - Live in Nottingham mediafire.com,Ian Gillan - Live in Nottingham rapidgator.net,Ian Gillan - Live in Nottingham filefactory.com,Ian Gillan - Live in Nottingham uploaded.net,oboom.com at here Please contact hostfile


Write a Comment For"Ian Gillan - Live in Nottingham "




Recent searches:
File searchcloudcache.php not found.

Remember Me?
BOOKSMARK US

rss feed

Get newest via RSS reader

feed burner

Mail Daily Letter

Enter your email address:

PUBLICATION ARCHIVE
«    January 2017    »
MonTueWedThuFriSatSun
 1
2345678
9101112131415
16171819202122
23242526272829
3031 

Main/Menu

WE RECOMMEND TO VISIT:

^ Top