Loading...


Loading




Author : Poster | Date : 3-12-2015, 12:01 | Comments : 0 |
|

Rush - Hemispheres (1978) [2013 Audio Fidelity]
EAC Secure Rip | FLAC (Image + Cue + Log) - 249 MB | Complete Scans (Jpeg 600 dpi) - 124 MB | MP3 (CBR320 Kbps) - 92 MB
Progressive Rock, Hard Rock | Audio Fidelity | AFZ2 162 | 36:17 minutes | Hosted On: NitroFlare & Oboom
CONTAINS CD LAYER ONLY

Hemispheres is the sixth studio album by Canadian rock band Rush. The album was recorded at Rockfield Studios in Wales and mixed at Trident Studios in London. It was the last of two albums they would record in the United Kingdom before returning to their homes in Canada.

Hemispheres is the sixth studio album by Canadian rock band Rush. The album was recorded at Rockfield Studios in Wales and mixed at Trident Studios in London. It was the last of two albums they would record in the United Kingdom before returning to their homes in Canada.
While such albums as 1980's Permanent Waves and 1981's Moving Pictures are usually considered Rush's masterpieces (and with good reason), 1978's Hemispheres is just as deserving. Maybe the fact that the album consists of only four compositions (half are lengthy pieces) was a bit too intimidating for some, but the near 20-minute-long "Cygnus X-1 Book II - Hemispheres" is arguably the band's finest extended track. While the story line isn't as comprehensible as "2112" was, it's much more consistent musically, twisting and turning through five different sections which contrast heavy rock sections against more sedate pieces. Neil Peart had become one of rock's most accomplished lyricists by this point, as evidenced by "The Trees," which deals with racism and inequality in a unique way (set in a forest!). And as always, the trio prove to be experts at their instruments, this time on the complex instrumental "La Villa Strangiato." Geddy Lee's shrieking vocals on the otherwise solid "Circumstances" may border on the irritating, but Hemispheres remains one of Rush's greatest releases. Reviewed by Greg Prato allmusic.com

EAC Log
Exact Audio Copy V1.0 beta 2 from 29. April 2011
EAC extraction logfile from 29. November 2015, 0:04
Rush / Hemispheres [2013 Audio Fidelity SACD]
Used drive : HL-DT-STBD-RE BH14NS40 Adapter: 0 ID: 2
Read mode : Secure
Utilize accurate stream : Yes
Defeat audio cache : Yes
Make use of C2 pointers : No
Read offset correction : 6
Overread into Lead-In and Lead-Out : No
Fill up missing offset samples with silence : Yes
Delete leading and trailing silent blocks : No
Null samples used in CRC calculations : Yes
Used interface : Native Win32 interface for Win NT & 2000
Used output format : User Defined Encoder
Selected bitrate : 1024 kBit/s
Quality : High
Add ID3 tag : No
Command line compressor : C:Program Files (x86)Exact Audio CopyFlacflac.exe
Additional command line options : -V -0 -T "artist=%albumartist%" -T "title=%title%" -T "album=%albumtitle%" -T "date=%year%" -T "genre=%genre%" -T "tracknumber=%tracknr%" %source%
TOC of the extracted CD
Track | Start | Length | Start sector | End sector
---------------------------------------------------------
1 | 0:00.00 | 18:08.49 | 0 | 81648
2 | 18:08.49 | 3:44.41 | 81649 | 98489
3 | 21:53.15 | 4:45.05 | 98490 | 119869
4 | 26:38.20 | 9:39.06 | 119870 | 163300
Range status and errors
Selected range
Filename C:EACRush - (1978) Hemispheres [2013 Audio Fidelity SACD]Rush - Hemispheres [2013 Audio Fidelity SACD].wav
Peak level 100.0 %
Extraction speed 4.3 X
Range quality 100.0 %
Test CRC 2CB19530
Copy CRC 2CB19530
Copy OK
No errors occurred
AccurateRip summary
Track 1 accurately ripped (confidence 41) [43C235D1] (AR v2)
Track 2 accurately ripped (confidence 41) [B7DD9111] (AR v2)
Track 3 accurately ripped (confidence 41) [8CB42E09] (AR v2)
Track 4 accurately ripped (confidence 41) [3EC294EE] (AR v2)
All tracks accurately ripped
End of status report
==== Log checksum D5E0232D5D0466C10DC0BDE6E7E3CDCD497A8403EC92B77F0CB449B6F3C535A2 ====

Track Listing:
01. Cygnus X-1 Book II: Hemispheres
I. Prelude
II. Apollo (Bringer of Wisdom)
III. Dionysus (Bringer of Love)
IV. Armageddon (The Battle of Heart and Mind)
V. Cygnus (Bringer of Balance)
VI. The Sphere (A Kind of Dream)
02. Circumstances
03. The Trees
04. La Villa Strangiato (An Exercise in Self-Indulgence)
I. Buenas Noches, Mein Froinds!
II. To Sleep, Perchance to Dream...
III. Strangiato Theme - 2:00
IV. A Lerxst in Wonderland
V. Monsters!
VI. The Ghost of the Aragon
VII. Danforth and Pape
VIII. The Waltz of the Shreves
IX. Never Turn Your Back on a Monster!
X. Monsters! (Reprise)
XI. Strangiato Theme (Reprise)
XII. A Farewell to Things
Album Released: October 29, 1978
Audio Fidelity SACD Released: October 1, 2013
Mastered for this SACD by: Kevin Gray At Cohearent Audio
DR Log
foobar2000 1.3.2 / Dynamic Range Meter 1.1.0
log date: 2015-11-29 00:53:06
--------------------------------------------------------------------------------
Analyzed: Rush / Hemispheres [2013 Audio Fidelity SACD]
--------------------------------------------------------------------------------
DR Peak RMS Duration Track
--------------------------------------------------------------------------------
DR13 0.00 dB -15.81 dB 18:09 01-Cygnus X-1 Book II: Hemispheres
DR12 -0.41 dB -15.17 dB 3:45 02-Circumstances
DR13 -0.30 dB -16.97 dB 4:45 03-The Trees
DR13 0.00 dB -16.57 dB 9:39 04-La Villa Strangiato (An Exercise In Self-Indulgence)
--------------------------------------------------------------------------------
Number of tracks: 4
Official DR value: DR13
Samplerate: 44100 Hz
Channels: 2
Bits per sample: 16
Bitrate: 910 kbps
Codec: FLAC
================================================================================

REPOST NOTE: New rip November 2015 at flac 0, same scans as original post.

Download Now :

 
[related-news] Related News:

{related-news} [/related-news]

ADVERTISING » Full And Free Download
Direct Download Free Rush - Hemispheres **REPOST - NEW RIP**.zip
« ADVERTISING

Rush - Hemispheres **REPOST - NEW RIP** Copyright

dlbin periodically updates infomation and download links of Rush - Hemispheres **REPOST - NEW RIP**.You should confirm all information before relying on it. eBook piracy is theft, Rush - Hemispheres **REPOST - NEW RIP** download torrent,direct link,prefiles.com,Rush - Hemispheres **REPOST - NEW RIP** dropbox.com,Rush - Hemispheres **REPOST - NEW RIP** mediafire.com,Rush - Hemispheres **REPOST - NEW RIP** rapidgator.net,Rush - Hemispheres **REPOST - NEW RIP** filefactory.com,Rush - Hemispheres **REPOST - NEW RIP** uploaded.net,oboom.com at here Please contact hostfile


Write a Comment For"Rush - Hemispheres **REPOST - NEW RIP**"




Recent searches:
File searchcloudcache.php not found.

Remember Me?
BOOKSMARK US

rss feed

Get newest via RSS reader

feed burner

Mail Daily Letter

Enter your email address:

PUBLICATION ARCHIVE
«    March 2017    »
MonTueWedThuFriSatSun
 12345
6789101112
13141516171819
20212223242526
2728293031 

Main/Menu

WE RECOMMEND TO VISIT:

^ Top