Loading...


Loading




Author : Poster | Date : 3-12-2015, 12:01 | Comments : 0 |
|

Rush - Counterparts (1993) [2012 Audio Fidelity]
EAC Secure Rip | FLAC (Image + Cue + Log) - 404 MB | Complete Scans (Jpeg 600 dpi) - 206 MB | MP3 (CBR320 Kbps) - 145 MB
Progressive Rock, Hard Rock | Audio Fidelity | AFZ 152 | 55:02 minutes | Hosted On: NitroFlare & Oboom
**CONTAINS CD LAYER ONLY**

Counterparts is the fifteenth studio album by Canadian rock band Rush. It became Rush's highest charting album in the US, peaking at No. 2 on the Billboard 200 (only behind Pearl Jam's Vs.). The lyrics of Counterparts continue the trends of Roll the Bones with dark and emotional themes being the primary focus. Some songs are "heavy" sounding tracks like "Animate" and "Stick it Out", which topped the Mainstream Rock Tracks for four weeks in late 1993, becoming the band's fifth single to do so. "Leave That Thing Alone" earned a Grammy nomination for "Best Instrumental".

Counterparts is the fifteenth studio album by Canadian rock band Rush. It became Rush's highest charting album in the US, peaking at No. 2 on the Billboard 200 (only behind Pearl Jam's Vs.). The lyrics of Counterparts continue the trends of Roll the Bones with dark and emotional themes being the primary focus. Some songs are "heavy" sounding tracks like "Animate" and "Stick it Out", which topped the Mainstream Rock Tracks for four weeks in late 1993, becoming the band's fifth single to do so. "Leave That Thing Alone" earned a Grammy nomination for "Best Instrumental".
By 1993, alternative rock had arrived in a big way, and surprisingly, Canadian veterans Rush were game, releasing their most honest and organic rock & roll record in over a decade with Counterparts. Opener "Animate" is straightforward enough, but doesn't even hint at the guitar ferocity and lyrical angst of "Stick it Out," a song which undoubtedly polarizes Rush fans to this day. Intellectual melodic rockers like "Cut to the Chase," "At the Speed of Love," and "Everyday Glory" are also present (and less shocking), but diversity continues to rule the day with Geddy Lee's bass taking charge on the amazingly somber "Double Agent" and the giddy instrumental "Leave That Thing Alone." Pure hard rock resurfaces on "Cold Fire," but it is the largely acoustic "Nobody's Hero" which provides the album's most gripping moment with an impassioned plea for HIV consciousness and understanding. Reviewed by Eduardo Rivadavia allmusic.com

EAC Log
Exact Audio Copy V1.0 beta 2 from 29. April 2011
EAC extraction logfile from 29. November 2015, 0:34
Rush / Counterparts [2012 Audio Fidelity SACD]
Used drive : HL-DT-STBD-RE BH14NS40 Adapter: 0 ID: 2
Read mode : Secure
Utilize accurate stream : Yes
Defeat audio cache : Yes
Make use of C2 pointers : No
Read offset correction : 6
Overread into Lead-In and Lead-Out : No
Fill up missing offset samples with silence : Yes
Delete leading and trailing silent blocks : No
Null samples used in CRC calculations : Yes
Used interface : Native Win32 interface for Win NT & 2000
Used output format : User Defined Encoder
Selected bitrate : 1024 kBit/s
Quality : High
Add ID3 tag : No
Command line compressor : C:Program Files (x86)Exact Audio CopyFlacflac.exe
Additional command line options : -V -0 -T "artist=%albumartist%" -T "title=%title%" -T "album=%albumtitle%" -T "date=%year%" -T "genre=%genre%" -T "tracknumber=%tracknr%" %source%
TOC of the extracted CD
Track | Start | Length | Start sector | End sector
---------------------------------------------------------
1 | 0:00.00 | 6:04.48 | 0 | 27347
2 | 6:04.48 | 4:47.43 | 27348 | 48915
3 | 10:52.16 | 4:49.03 | 48916 | 70593
4 | 15:41.19 | 5:05.22 | 70594 | 93490
5 | 20:46.41 | 4:39.60 | 93491 | 114475
6 | 25:26.26 | 5:47.37 | 114476 | 140537
7 | 31:13.63 | 5:02.51 | 140538 | 163238
8 | 36:16.39 | 4:52.45 | 163239 | 185183
9 | 41:09.09 | 4:07.48 | 185184 | 203756
10 | 45:16.57 | 4:26.65 | 203757 | 223771
11 | 49:43.47 | 5:18.04 | 223772 | 247625
Range status and errors
Selected range
Filename C:EACRush - (1993) Counterparts [2012 Audio Fidelity SACD]Rush - Counterparts [2012 Audio Fidelity SACD].wav
Peak level 100.0 %
Extraction speed 4.7 X
Range quality 100.0 %
Test CRC FB74A97F
Copy CRC FB74A97F
Copy OK
No errors occurred
AccurateRip summary
Track 1 accurately ripped (confidence 42) [2156D744] (AR v2)
Track 2 accurately ripped (confidence 42) [1AAD7703] (AR v2)
Track 3 accurately ripped (confidence 42) [2EFCB4D4] (AR v2)
Track 4 accurately ripped (confidence 42) [0DF2B2CD] (AR v2)
Track 5 accurately ripped (confidence 42) [B9DB4262] (AR v2)
Track 6 accurately ripped (confidence 42) [0B7B279B] (AR v2)
Track 7 accurately ripped (confidence 42) [8A5C1F65] (AR v2)
Track 8 accurately ripped (confidence 42) [C466DA11] (AR v2)
Track 9 accurately ripped (confidence 42) [927264CC] (AR v2)
Track 10 accurately ripped (confidence 42) [25427CA7] (AR v2)
Track 11 accurately ripped (confidence 42) [826B8E5F] (AR v2)
All tracks accurately ripped
End of status report
==== Log checksum 34B231F9D15BAFA1E4A3EE7E750F0C28FB725005F30EF8FD9C93BEE974C8C946 ====

Track Listing:
01. Animate
02. Stick It Out
03. Cut To The Chase
04. Nobody's Here
05. Between Sun & Moon
06. Alien Shore
07. The Speed Of Love
08. Double Agent
09. Leave That Thing Alone
10. Cold Fire
11. Everyday Glory
Stereo CD & SACD Mastering: Kevin Gray At Cohearent Audio
Album Released: October 19.1993
Audio Fidelity SACD Released: March 5, 2013
DR Log
foobar2000 1.3.2 / Dynamic Range Meter 1.1.0
log date: 2015-11-29 01:07:00
--------------------------------------------------------------------------------
Analyzed: Rush / Counterparts [2012 Audio Fidelity SACD]
--------------------------------------------------------------------------------
DR Peak RMS Duration Track
--------------------------------------------------------------------------------
DR12 0.00 dB -13.90 dB 6:05 01-Animate
DR10 -1.67 dB -13.36 dB 4:48 02-Stick It Out
DR12 -0.49 dB -13.93 dB 4:49 03-Cut To The Chase
DR12 -0.20 dB -15.19 dB 5:05 04-Nobody's Here
DR13 -0.27 dB -14.37 dB 4:40 05-Between Sun & Moon
DR12 0.00 dB -13.48 dB 5:47 06-Alien Shore
DR12 -0.29 dB -14.54 dB 5:03 07-The Speed Of Love
DR12 -0.60 dB -14.09 dB 4:53 08-Double Agent
DR12 -0.54 dB -15.14 dB 4:08 09-Leave That Thing Alone
DR13 0.00 dB -14.83 dB 4:27 10-Cold Fire
DR14 0.00 dB -15.41 dB 5:18 11-Everyday Glory
--------------------------------------------------------------------------------
Number of tracks: 11
Official DR value: DR12
Samplerate: 44100 Hz
Channels: 2
Bits per sample: 16
Bitrate: 975 kbps
Codec: FLAC
================================================================================

REPOST NOTE: New rip November 2015 at flac 0, same scans as original post.

Download Now :

 
[related-news] Related News:

{related-news} [/related-news]

ADVERTISING » Full And Free Download
Direct Download Free Rush - Counterparts **REPOST - NEW RIP**.zip
« ADVERTISING

Rush - Counterparts **REPOST - NEW RIP** Copyright

dlbin periodically updates infomation and download links of Rush - Counterparts **REPOST - NEW RIP**.You should confirm all information before relying on it. eBook piracy is theft, Rush - Counterparts **REPOST - NEW RIP** download torrent,direct link,prefiles.com,Rush - Counterparts **REPOST - NEW RIP** dropbox.com,Rush - Counterparts **REPOST - NEW RIP** mediafire.com,Rush - Counterparts **REPOST - NEW RIP** rapidgator.net,Rush - Counterparts **REPOST - NEW RIP** filefactory.com,Rush - Counterparts **REPOST - NEW RIP** uploaded.net,oboom.com at here Please contact hostfile


Write a Comment For"Rush - Counterparts **REPOST - NEW RIP**"




Recent searches:
File searchcloudcache.php not found.

Remember Me?
BOOKSMARK US

rss feed

Get newest via RSS reader

feed burner

Mail Daily Letter

Enter your email address:

PUBLICATION ARCHIVE
«    January 2017    »
MonTueWedThuFriSatSun
 1
2345678
9101112131415
16171819202122
23242526272829
3031 

Main/Menu

WE RECOMMEND TO VISIT:

^ Top